Loading...
Error

(Rock & Roll, Pop Rock) Браво - Московский бит (1998) [FLAC (Image+.CUE), Lossless]

Статистика раздачи
Размер:  280 MB   |    Зарегистрирован:  4 года 6 месяцев   |    Скачан:  5 раз
Сидов:  1  |  0 KB/s  ]   Личеров:  0  |  0 KB/s  ]

* - сиды/пиры с внешних источников

   
 
Автор Сообщение

Бишеп Пол:Муж

06-Мар-2018 11:58

Браво - Московский бит

Жанр: Rock & Roll, Pop Rock
Год выпуска: 1998
Источник: CD
Производитель диска: Sintez Records - SRCD 00060
Аудиокодек: FLAC
Тип рипа: Image+.CUE
Битрейт аудио: lossless
Продолжительность: 00:40:09


Треклист:
01. Московский бит
02. Стильный оранжевый галстук
03. Лунатик
04. Космический рок-н-ролл
05. Пусть не кончается дождь
06. Пилот 12-45
07. Как жаль
08. Рио
09. Заполярный твист
10. Вот и все
Bonus Tracks:
11. По волнам
12. Север и Юг
13. Дорога в облака

Код:

Exact Audio Copy V1.3 from 2. September 2016

EAC extraction logfile from 7. April 2017, 22:13

Браво / Московский бит

Used drive  : TSSTcorpCDDVDW SH-224DB   Adapter: 0  ID: 1

Read mode               : Secure
Utilize accurate stream : Yes
Defeat audio cache      : Yes
Make use of C2 pointers : No

Read offset correction                      : 6
Overread into Lead-In and Lead-Out          : No
Fill up missing offset samples with silence : Yes
Delete leading and trailing silent blocks   : No
Null samples used in CRC calculations       : Yes
Used interface                              : Installed external ASPI interface

Used output format              : User Defined Encoder
Selected bitrate                : 1024 kBit/s
Quality                         : High
Add ID3 tag                     : No
Command line compressor         : D:\Program Files\Exact Audio Copy\Flac\flac.exe
Additional command line options : -V -8 -T "Genre=%genre%" -T "Artist=%artist%" -T "Title=%title%" -T "Album=%albumtitle%" -T "Date=%year%" -T "Tracknumber=%tracknr%" -T "Comment=%comment%" %source%

TOC of the extracted CD

     Track |   Start  |  Length  | Start sector | End sector
    ---------------------------------------------------------
        1  |  0:00.00 |  3:20.65 |         0    |    15064   
        2  |  3:20.65 |  3:25.15 |     15065    |    30454   
        3  |  6:46.05 |  3:22.40 |     30455    |    45644   
        4  | 10:08.45 |  2:19.55 |     45645    |    56124   
        5  | 12:28.25 |  3:23.26 |     56125    |    71375   
        6  | 15:51.51 |  2:17.00 |     71376    |    81650   
        7  | 18:08.51 |  3:40.54 |     81651    |    98204   
        8  | 21:49.30 |  3:08.34 |     98205    |   112338   
        9  | 24:57.64 |  2:32.48 |    112339    |   123786   
       10  | 27:30.37 |  4:02.47 |    123787    |   141983   
       11  | 31:33.09 |  3:07.26 |    141984    |   156034   
       12  | 34:40.35 |  2:30.67 |    156035    |   167351   
       13  | 37:11.27 |  2:57.61 |    167352    |   180687   

Range status and errors

Selected range

     Filename D:\Desktop\Браво - Московский бит (1998)\Браво - Московский бит.wav

     Peak level 99.1 %
     Extraction speed 2.9 X
     Range quality 100.0 %
     Test CRC F8A1A57C
     Copy CRC F8A1A57C
     Copy OK

No errors occurred

 
AccurateRip summary
 
Track  1  accurately ripped (confidence 2)  [5574CE68]  (AR v2)
Track  2  accurately ripped (confidence 2)  [EF0C7EA4]  (AR v2)
Track  3  accurately ripped (confidence 2)  [90B8AA82]  (AR v2)
Track  4  accurately ripped (confidence 2)  [72E1270F]  (AR v2)
Track  5  accurately ripped (confidence 2)  [5E19AA5A]  (AR v2)
Track  6  accurately ripped (confidence 2)  [7ED97568]  (AR v2)
Track  7  accurately ripped (confidence 2)  [4561EA5F]  (AR v2)
Track  8  accurately ripped (confidence 2)  [ADF635F8]  (AR v2)
Track  9  accurately ripped (confidence 2)  [6ADBE741]  (AR v2)
Track 10  accurately ripped (confidence 2)  [827A7913]  (AR v2)
Track 11  accurately ripped (confidence 2)  [A422EF3E]  (AR v2)
Track 12  accurately ripped (confidence 2)  [0CFBE577]  (AR v2)
Track 13  accurately ripped (confidence 2)  [67FF3F57]  (AR v2)
 
All tracks accurately ripped

End of status report

==== Log checksum EDE9F3A48B7A43C3D3CCABF86ECF79CF888CBC9CCC45055F8352D9A1488B874F ====

Код:

REM GENRE "Pop, Rock & Roll"
REM DATE 1998
REM DISCID 9809690D
REM COMMENT "ExactAudioCopy v1.3"
PERFORMER "Браво"
TITLE "Московский бит"
REM COMPOSER ""
FILE "Браво - Московский бит.flac" WAVE
  TRACK 01 AUDIO
    TITLE "Московский бит"
    PERFORMER "Браво"
    REM COMPOSER ""
    INDEX 01 00:00:00
  TRACK 02 AUDIO
    TITLE "Стильный оранжевый галстук"
    PERFORMER "Браво"
    REM COMPOSER ""
    INDEX 00 03:18:65
    INDEX 01 03:20:65
  TRACK 03 AUDIO
    TITLE "Лунатик"
    PERFORMER "Браво"
    REM COMPOSER ""
    INDEX 00 06:44:05
    INDEX 01 06:46:05
  TRACK 04 AUDIO
    TITLE "Космический рок-н-ролл"
    PERFORMER "Браво"
    REM COMPOSER ""
    INDEX 00 10:06:45
    INDEX 01 10:08:45
  TRACK 05 AUDIO
    TITLE "Пусть не кончается дождь"
    PERFORMER "Браво"
    REM COMPOSER ""
    INDEX 00 12:26:25
    INDEX 01 12:28:25
  TRACK 06 AUDIO
    TITLE "Пилот 12-45"
    PERFORMER "Браво"
    REM COMPOSER ""
    INDEX 00 15:49:51
    INDEX 01 15:51:51
  TRACK 07 AUDIO
    TITLE "Как жаль"
    PERFORMER "Браво"
    REM COMPOSER ""
    INDEX 00 18:06:51
    INDEX 01 18:08:51
  TRACK 08 AUDIO
    TITLE "Рио"
    PERFORMER "Браво"
    REM COMPOSER ""
    INDEX 00 21:47:30
    INDEX 01 21:49:30
  TRACK 09 AUDIO
    TITLE "Заполярный твист"
    PERFORMER "Браво"
    REM COMPOSER ""
    INDEX 00 24:55:64
    INDEX 01 24:57:64
  TRACK 10 AUDIO
    TITLE "Вот и все"
    PERFORMER "Браво"
    REM COMPOSER ""
    INDEX 00 27:28:37
    INDEX 01 27:30:37
  TRACK 11 AUDIO
    TITLE "По волнам"
    PERFORMER "Браво"
    REM COMPOSER ""
    INDEX 00 31:31:09
    INDEX 01 31:33:09
  TRACK 12 AUDIO
    TITLE "Север и Юг"
    PERFORMER "Браво"
    REM COMPOSER ""
    INDEX 00 34:38:35
    INDEX 01 34:40:35
  TRACK 13 AUDIO
    TITLE "Дорога в облака"
    PERFORMER "Браво"
    REM COMPOSER ""
    INDEX 00 37:09:27
    INDEX 01 37:11:27

Этот торрент недоступен для скачивания без регистрации, однако доступен по публичной magnet-ссылке (источники с публичных трекеров). Перед использованием ссылки прочтите, пожалуйста Пользовательское соглашение, а также как можно дольше оставайтесь на раздаче! Для того, чтобы скачать сам торрент-файл (который видит больше источников), а также для того, чтобы поблагодарить релизера, вам необходимо зарегистрироваться. Если регистрироваться лень - вы можете также попробовать скачать релиз по нашим партнерским ссылкам ниже. Кроме того, зарегистрированным пользователям не показывается всплывающая реклама при скачивании.

[underverse.me].t99191.torrent
Трекер: Зарегистрирован   [ 06.03.2018 11:58 ]  
Статус: проверено (by Бишеп at 06.03.2018 12:00)
Поблагодарили: пока никто не поблагодарил...
Тип торрента: публичный - доступные источники с открытых трекеров: 
Размер: 280 MB (занимает 0.06 DVDR, для записи нужно 1 болванка DVDR/RW)
 
 

Яндекс.Метрика powered by Sphinx


В Н И М А Н И Е
Сайт не распространяет и не хранит электронные версии произведений, а лишь бесплатно и без коммерческой выгоды (не требуя взамен платы,
SMS и т.д.) предоставляет доступ к создаваемому пользователями каталогу ссылок на торрент-файлы, которые содержат только списки хеш-сумм.
Убедительная просьба с жалобами обращаться напрямую к пользователю, разместившему торрент файл.

Вверх