Loading...
Error

(Rock, Rock & Roll, Pop Rock) Браво - Бравоспектива (2CD) (2017) [FLAC (Tracks+.Cue), Lossless]

Статистика раздачи
Размер:  1.37 GB   |    Зарегистрирован:  4 года 7 месяцев   |    Скачан:  14 раз

Полного источника не было: 4 месяца 6 дней

Сидов:  0  |  0 KB/s  ]   Личеров:  0  |  0 KB/s  ]

* - сиды/пиры с внешних источников

   
 
Автор Сообщение

Бишеп Пол:Муж

16-Фев-2018 15:53

Браво - Бравоспектива

Жанр: Rock, Rock & Roll, Pop Rock
Год выпуска: 2017
Источник: CD
Производитель диска: Союз Мьюзик - SZCD1861-17
Аудиокодек: FLAC
Тип рипа: Tracks+.CUE
Битрейт аудио: lossless
Продолжительность: 02:34:05

Треклист:
01. Кошки (2:48)
02. Жёлтые ботинки (3:27)
03. Старый отель (3:56)
04. Ленинградский рок-н-ролл (2:25)
05. В чём дело? (3:22)
06. Будь со мной (2:50)
07. Моя молодость (2:26)
08. Чудесная страна (3:12)
09. Зачем родился ты (3:42)
10. Король Оранжевое лето (4:35)
11. Джамайка (1:52)
12. Добрый вечер, Москва (2:53)
13. Мне грустно и легко (3:09)
14. Вася (3:17)
15. Московский бит (3:20)
16. Стильный оранжевый галстук (3:24)
17. Как жаль (3:39)
18. Любите девушки (2:46)
19. Дорога в облака (3:05)
20. По волнам (3:06)
21. Замок из песка (3:37)
22. Если бы на Марсе (3:09)
23. Там, где сбываются сны (3:14)
24. Жар-птица (3:45)

Код:

Exact Audio Copy V1.0 beta 3 from 29. August 2011

Отчёт EAC об извлечении, выполненном 1. мая 2017, 21:08

Браво / Бравоспектива (CD 1)

Дисковод: PIONEER DVD-RW  DVR-218L   Adapter: 0  ID: 0

Режим чтения                 : Достоверность
Использование точного потока : Да
Отключение кэша аудио        : Да
Использование указателей C2  : Нет

Коррекция смещения при чтении                     : 6
Способность читать области Lead-in и Lead-out     : Нет
Заполнение пропущенных сэмплов тишиной            : Да
Удаление блоков с тишиной в начале и конце        : Нет
При вычислениях CRC использовались нулевые сэмплы : Да
Интерфейс                                         : Встроенный Win32-интерфейс для Win NT/2000
Обработка зазоров                                 : Добавлено к предыдущему треку

Выходной формат          : Пользовательский кодировщик
Выбранный битрейт        : 128 kBit/s
Качество                 : Высокий
Добавление ID3-тега      : Нет
Утилита сжатия           : C:\Program Files (x86)\Exact Audio Copy\Flac\flac.exe
Дополнительные параметры : -V -7 -T "Genre=%genre%" -T "Artist=%artist%" -T "Title=%title%" -T "Album=%albumtitle%" -T "Date=%year%" -T "Tracknumber=%tracknr%" -T "Comment=%comment%" %source%

TOC извлечённого CD

     Трек |   Старт  | Длительность | Начальный сектор | Конечный сектор
    ---------------------------------------------------------------------
       1  |  0:00.00 |    2:47.43   |           0      |      12567     
       2  |  2:47.43 |    3:27.26   |       12568      |      28118     
       3  |  6:14.69 |    3:55.53   |       28119      |      45796     
       4  | 10:10.47 |    2:25.15   |       45797      |      56686     
       5  | 12:35.62 |    3:22.30   |       56687      |      71866     
       6  | 15:58.17 |    2:49.49   |       71867      |      84590     
       7  | 18:47.66 |    2:26.04   |       84591      |      95544     
       8  | 21:13.70 |    3:12.14   |       95545      |     109958     
       9  | 24:26.09 |    3:42.20   |      109959      |     126628     
      10  | 28:08.29 |    4:35.37   |      126629      |     147290     
      11  | 32:43.66 |    1:51.62   |      147291      |     155677     
      12  | 34:35.53 |    2:53.00   |      155678      |     168652     
      13  | 37:28.53 |    3:08.50   |      168653      |     182802     
      14  | 40:37.28 |    3:17.15   |      182803      |     197592     
      15  | 43:54.43 |    3:20.12   |      197593      |     212604     
      16  | 47:14.55 |    3:23.60   |      212605      |     227889     
      17  | 50:38.40 |    3:39.15   |      227890      |     244329     
      18  | 54:17.55 |    2:45.48   |      244330      |     256752     
      19  | 57:03.28 |    3:05.04   |      256753      |     270631     
      20  | 60:08.32 |    3:06.00   |      270632      |     284581     
      21  | 63:14.32 |    3:37.03   |      284582      |     300859     
      22  | 66:51.35 |    3:09.14   |      300860      |     315048     
      23  | 70:00.49 |    3:13.58   |      315049      |     329581     
      24  | 73:14.32 |    3:44.45   |      329582      |     346426     

Трек  1

     Имя файла E:\_VIDEO\_seriaЛЫ_\!!!muz\Браво - Бравоспектива (2017) [2xCD]\Бравоспектива (CD 1)\01 Кошки.wav

     Длина предзазора  0:00:02.00

     Пиковый уровень 100.0 %
     Скорость извлечения 1.1 X
     Качество трека 100.0 %
     CRC теста 7376FFE3
     CRC копии 7376FFE3
     Трек не обнаружен в базе AccurateRip
     Копирование... OK

Трек  2

     Имя файла E:\_VIDEO\_seriaЛЫ_\!!!muz\Браво - Бравоспектива (2017) [2xCD]\Бравоспектива (CD 1)\02 Жёлтые ботинки.wav

     Пиковый уровень 100.0 %
     Скорость извлечения 1.2 X
     Качество трека 100.0 %
     CRC теста 0B27A3C9
     CRC копии 0B27A3C9
     Трек не обнаружен в базе AccurateRip
     Копирование... OK

Трек  3

     Имя файла E:\_VIDEO\_seriaЛЫ_\!!!muz\Браво - Бравоспектива (2017) [2xCD]\Бравоспектива (CD 1)\03 Старый отель.wav

     Пиковый уровень 100.0 %
     Скорость извлечения 1.2 X
     Качество трека 99.9 %
     CRC теста E6FDACEA
     CRC копии E6FDACEA
     Трек не обнаружен в базе AccurateRip
     Копирование... OK

Трек  4

     Имя файла E:\_VIDEO\_seriaЛЫ_\!!!muz\Браво - Бравоспектива (2017) [2xCD]\Бравоспектива (CD 1)\04 Ленинградский рок-н-ролл.wav

     Пиковый уровень 100.0 %
     Скорость извлечения 1.3 X
     Качество трека 100.0 %
     CRC теста 6431E602
     CRC копии 6431E602
     Трек не обнаружен в базе AccurateRip
     Копирование... OK

Трек  5

     Имя файла E:\_VIDEO\_seriaЛЫ_\!!!muz\Браво - Бравоспектива (2017) [2xCD]\Бравоспектива (CD 1)\05 В чём дело.wav

     Пиковый уровень 86.1 %
     Скорость извлечения 1.4 X
     Качество трека 100.0 %
     CRC теста 5336B5B5
     CRC копии 5336B5B5
     Трек не обнаружен в базе AccurateRip
     Копирование... OK

Трек  6

     Имя файла E:\_VIDEO\_seriaЛЫ_\!!!muz\Браво - Бравоспектива (2017) [2xCD]\Бравоспектива (CD 1)\06 Будь со мной.wav

     Пиковый уровень 100.0 %
     Скорость извлечения 1.2 X
     Качество трека 99.9 %
     CRC теста BE56E9C4
     CRC копии BE56E9C4
     Трек не обнаружен в базе AccurateRip
     Копирование... OK

Трек  7

     Имя файла E:\_VIDEO\_seriaЛЫ_\!!!muz\Браво - Бравоспектива (2017) [2xCD]\Бравоспектива (CD 1)\07 Моя молодость.wav

     Пиковый уровень 100.0 %
     Скорость извлечения 1.2 X
     Качество трека 99.9 %
     CRC теста 1B9AB00E
     CRC копии 1B9AB00E
     Трек не обнаружен в базе AccurateRip
     Копирование... OK

Трек  8

     Имя файла E:\_VIDEO\_seriaЛЫ_\!!!muz\Браво - Бравоспектива (2017) [2xCD]\Бравоспектива (CD 1)\08 Чудесная страна.wav

     Пиковый уровень 100.0 %
     Скорость извлечения 1.6 X
     Качество трека 100.0 %
     CRC теста 85D3B3EE
     CRC копии 85D3B3EE
     Трек не обнаружен в базе AccurateRip
     Копирование... OK

Трек  9

     Имя файла E:\_VIDEO\_seriaЛЫ_\!!!muz\Браво - Бравоспектива (2017) [2xCD]\Бравоспектива (CD 1)\09 Зачем родился ты.wav

     Пиковый уровень 100.0 %
     Скорость извлечения 1.7 X
     Качество трека 100.0 %
     CRC теста 972AD80F
     CRC копии 972AD80F
     Трек не обнаружен в базе AccurateRip
     Копирование... OK

Трек 10

     Имя файла E:\_VIDEO\_seriaЛЫ_\!!!muz\Браво - Бравоспектива (2017) [2xCD]\Бравоспектива (CD 1)\10 Король Оранжевое лето.wav

     Пиковый уровень 97.5 %
     Скорость извлечения 1.8 X
     Качество трека 100.0 %
     CRC теста 0D9CF8F8
     CRC копии 0D9CF8F8
     Трек не обнаружен в базе AccurateRip
     Копирование... OK

Трек 11

     Имя файла E:\_VIDEO\_seriaЛЫ_\!!!muz\Браво - Бравоспектива (2017) [2xCD]\Бравоспектива (CD 1)\11 Джамайка.wav

     Пиковый уровень 97.7 %
     Скорость извлечения 1.6 X
     Качество трека 100.0 %
     CRC теста 2EBFA806
     CRC копии 2EBFA806
     Трек не обнаружен в базе AccurateRip
     Копирование... OK

Трек 12

     Имя файла E:\_VIDEO\_seriaЛЫ_\!!!muz\Браво - Бравоспектива (2017) [2xCD]\Бравоспектива (CD 1)\12 Добрый вечер, Москва.wav

     Пиковый уровень 97.7 %
     Скорость извлечения 1.5 X
     Качество трека 99.9 %
     CRC теста 871751F5
     CRC копии 871751F5
     Трек не обнаружен в базе AccurateRip
     Копирование... OK

Трек 13

     Имя файла E:\_VIDEO\_seriaЛЫ_\!!!muz\Браво - Бравоспектива (2017) [2xCD]\Бравоспектива (CD 1)\13 Мне грустно и легко.wav

     Пиковый уровень 97.7 %
     Скорость извлечения 1.9 X
     Качество трека 100.0 %
     CRC теста 55483F0F
     CRC копии 55483F0F
     Трек не обнаружен в базе AccurateRip
     Копирование... OK

Трек 14

     Имя файла E:\_VIDEO\_seriaЛЫ_\!!!muz\Браво - Бравоспектива (2017) [2xCD]\Бравоспектива (CD 1)\14 Вася.wav

     Пиковый уровень 97.7 %
     Скорость извлечения 1.7 X
     Качество трека 99.9 %
     CRC теста A1D121B9
     CRC копии A1D121B9
     Трек не обнаружен в базе AccurateRip
     Копирование... OK

Трек 15

     Имя файла E:\_VIDEO\_seriaЛЫ_\!!!muz\Браво - Бравоспектива (2017) [2xCD]\Бравоспектива (CD 1)\15 Московский бит.wav

     Пиковый уровень 97.7 %
     Скорость извлечения 1.7 X
     Качество трека 99.9 %
     CRC теста 7A9960B2
     CRC копии 7A9960B2
     Трек не обнаружен в базе AccurateRip
     Копирование... OK

Трек 16

     Имя файла E:\_VIDEO\_seriaЛЫ_\!!!muz\Браво - Бравоспектива (2017) [2xCD]\Бравоспектива (CD 1)\16 Стильный оранжевый галстук.wav

     Пиковый уровень 97.7 %
     Скорость извлечения 2.1 X
     Качество трека 100.0 %
     CRC теста 89DAEA01
     CRC копии 89DAEA01
     Трек не обнаружен в базе AccurateRip
     Копирование... OK

Трек 17

     Имя файла E:\_VIDEO\_seriaЛЫ_\!!!muz\Браво - Бравоспектива (2017) [2xCD]\Бравоспектива (CD 1)\17 Как жаль.wav

     Пиковый уровень 81.7 %
     Скорость извлечения 2.2 X
     Качество трека 100.0 %
     CRC теста 47922897
     CRC копии 47922897
     Трек не обнаружен в базе AccurateRip
     Копирование... OK

Трек 18

     Имя файла E:\_VIDEO\_seriaЛЫ_\!!!muz\Браво - Бравоспектива (2017) [2xCD]\Бравоспектива (CD 1)\18 Любите девушки.wav

     Пиковый уровень 97.7 %
     Скорость извлечения 1.8 X
     Качество трека 99.9 %
     CRC теста F42C4FBE
     CRC копии F42C4FBE
     Трек не обнаружен в базе AccurateRip
     Копирование... OK

Трек 19

     Имя файла E:\_VIDEO\_seriaЛЫ_\!!!muz\Браво - Бравоспектива (2017) [2xCD]\Бравоспектива (CD 1)\19 Дорога в облака.wav

     Пиковый уровень 97.7 %
     Скорость извлечения 2.2 X
     Качество трека 100.0 %
     CRC теста C2DD8D52
     CRC копии C2DD8D52
     Трек не обнаружен в базе AccurateRip
     Копирование... OK

Трек 20

     Имя файла E:\_VIDEO\_seriaЛЫ_\!!!muz\Браво - Бравоспектива (2017) [2xCD]\Бравоспектива (CD 1)\20 По волнам.wav

     Пиковый уровень 97.7 %
     Скорость извлечения 2.3 X
     Качество трека 100.0 %
     CRC теста DC97E451
     CRC копии DC97E451
     Трек не обнаружен в базе AccurateRip
     Копирование... OK

Трек 21

     Имя файла E:\_VIDEO\_seriaЛЫ_\!!!muz\Браво - Бравоспектива (2017) [2xCD]\Бравоспектива (CD 1)\21 Замок из песка.wav

     Пиковый уровень 97.7 %
     Скорость извлечения 2.4 X
     Качество трека 100.0 %
     CRC теста 6B1AA3EE
     CRC копии 6B1AA3EE
     Трек не обнаружен в базе AccurateRip
     Копирование... OK

Трек 22

     Имя файла E:\_VIDEO\_seriaЛЫ_\!!!muz\Браво - Бравоспектива (2017) [2xCD]\Бравоспектива (CD 1)\22 Если бы на Марсе.wav

     Пиковый уровень 100.0 %
     Скорость извлечения 2.3 X
     Качество трека 100.0 %
     CRC теста C03BA13E
     CRC копии C03BA13E
     Трек не обнаружен в базе AccurateRip
     Копирование... OK

Трек 23

     Имя файла E:\_VIDEO\_seriaЛЫ_\!!!muz\Браво - Бравоспектива (2017) [2xCD]\Бравоспектива (CD 1)\23 Там, где сбываются сны.wav

     Пиковый уровень 94.0 %
     Скорость извлечения 2.4 X
     Качество трека 100.0 %
     CRC теста E71D4E24
     CRC копии E71D4E24
     Трек не обнаружен в базе AccurateRip
     Копирование... OK

Трек 24

     Имя файла E:\_VIDEO\_seriaЛЫ_\!!!muz\Браво - Бравоспектива (2017) [2xCD]\Бравоспектива (CD 1)\24 Жар-птица.wav

     Пиковый уровень 91.1 %
     Скорость извлечения 2.5 X
     Качество трека 100.0 %
     CRC теста ABD3E6E2
     CRC копии ABD3E6E2
     Трек не обнаружен в базе AccurateRip
     Копирование... OK

Ни одного трека нет в базе AccurateRip

Ошибок не произошло

Конец отчёта

==== Контрольная сумма отчёта B9951200414512AAB5039A62EA4821A5E2D71C947ED36D63D940510D6AC5F0AF ====

Код:

REM GENRE Rock
REM DATE 2017
REM DISCID 62120B18
REM COMMENT "ExactAudioCopy v1.0b3"
PERFORMER "Браво"
TITLE "Бравоспектива (CD 1)"
FILE "01 Кошки.wav" WAVE
  TRACK 01 AUDIO
    TITLE "Кошки"
    PERFORMER "Браво"
    INDEX 01 00:00:00
FILE "02 Жёлтые ботинки.wav" WAVE
  TRACK 02 AUDIO
    TITLE "Жёлтые ботинки"
    PERFORMER "Браво"
    INDEX 01 00:00:00
FILE "03 Старый отель.wav" WAVE
  TRACK 03 AUDIO
    TITLE "Старый отель"
    PERFORMER "Браво"
    INDEX 01 00:00:00
FILE "04 Ленинградский рок-н-ролл.wav" WAVE
  TRACK 04 AUDIO
    TITLE "Ленинградский рок-н-ролл"
    PERFORMER "Браво"
    INDEX 01 00:00:00
FILE "05 В чём дело.wav" WAVE
  TRACK 05 AUDIO
    TITLE "В чём дело?"
    PERFORMER "Браво"
    INDEX 01 00:00:00
FILE "06 Будь со мной.wav" WAVE
  TRACK 06 AUDIO
    TITLE "Будь со мной"
    PERFORMER "Браво"
    INDEX 01 00:00:00
FILE "07 Моя молодость.wav" WAVE
  TRACK 07 AUDIO
    TITLE "Моя молодость"
    PERFORMER "Браво"
    INDEX 01 00:00:00
FILE "08 Чудесная страна.wav" WAVE
  TRACK 08 AUDIO
    TITLE "Чудесная страна"
    PERFORMER "Браво"
    INDEX 01 00:00:00
FILE "09 Зачем родился ты.wav" WAVE
  TRACK 09 AUDIO
    TITLE "Зачем родился ты"
    PERFORMER "Браво"
    INDEX 01 00:00:00
FILE "10 Король Оранжевое лето.wav" WAVE
  TRACK 10 AUDIO
    TITLE "Король Оранжевое лето"
    PERFORMER "Браво"
    INDEX 01 00:00:00
FILE "11 Джамайка.wav" WAVE
  TRACK 11 AUDIO
    TITLE "Джамайка"
    PERFORMER "Браво"
    INDEX 01 00:00:00
FILE "12 Добрый вечер, Москва.wav" WAVE
  TRACK 12 AUDIO
    TITLE "Добрый вечер, Москва"
    PERFORMER "Браво"
    INDEX 01 00:00:00
FILE "13 Мне грустно и легко.wav" WAVE
  TRACK 13 AUDIO
    TITLE "Мне грустно и легко"
    PERFORMER "Браво"
    INDEX 01 00:00:00
FILE "14 Вася.wav" WAVE
  TRACK 14 AUDIO
    TITLE "Вася"
    PERFORMER "Браво"
    INDEX 01 00:00:00
FILE "15 Московский бит.wav" WAVE
  TRACK 15 AUDIO
    TITLE "Московский бит"
    PERFORMER "Браво"
    INDEX 01 00:00:00
FILE "16 Стильный оранжевый галстук.wav" WAVE
  TRACK 16 AUDIO
    TITLE "Стильный оранжевый галстук"
    PERFORMER "Браво"
    INDEX 01 00:00:00
FILE "17 Как жаль.wav" WAVE
  TRACK 17 AUDIO
    TITLE "Как жаль"
    PERFORMER "Браво"
    INDEX 01 00:00:00
FILE "18 Любите девушки.wav" WAVE
  TRACK 18 AUDIO
    TITLE "Любите девушки"
    PERFORMER "Браво"
    INDEX 01 00:00:00
FILE "19 Дорога в облака.wav" WAVE
  TRACK 19 AUDIO
    TITLE "Дорога в облака"
    PERFORMER "Браво"
    INDEX 01 00:00:00
FILE "20 По волнам.wav" WAVE
  TRACK 20 AUDIO
    TITLE "По волнам"
    PERFORMER "Браво"
    INDEX 01 00:00:00
FILE "21 Замок из песка.wav" WAVE
  TRACK 21 AUDIO
    TITLE "Замок из песка"
    PERFORMER "Браво"
    INDEX 01 00:00:00
FILE "22 Если бы на Марсе.wav" WAVE
  TRACK 22 AUDIO
    TITLE "Если бы на Марсе"
    PERFORMER "Браво"
    INDEX 01 00:00:00
FILE "23 Там, где сбываются сны.wav" WAVE
  TRACK 23 AUDIO
    TITLE "Там, где сбываются сны"
    PERFORMER "Браво"
    INDEX 01 00:00:00
FILE "24 Жар-птица.wav" WAVE
  TRACK 24 AUDIO
    TITLE "Жар-птица"
    PERFORMER "Браво"
    INDEX 01 00:00:00
Треклист:
01. Этот город (3:07)
02. Это за окном рассвет (3:20)
03. Ветер знает (3:31)
04. Вера, надежда, любовь (3:47)
05. Автомобиль (3:59)
06. Тише, послушай (4:44)
07. Сластена (3:31)
08. Любовь не горит (3:37)
09. Выше всех (3:58)
10. Мода (4:03)
11. Полет через Ла-Манш (4:07)
12. Вот и я (3:56)
13. Нет предела (4:13)
14. Плохой, хороший, злой (4:56)
15. Ray Davies (3:16)
16. Перемена мест (3:10)
17. 36,6 (4:08)
18. Бег (3:52)
19. Блюз прошлого лета (4:10)
20. От Таганки до Кузьминок (3:41)

Код:

Exact Audio Copy V1.0 beta 3 from 29. August 2011

Отчёт EAC об извлечении, выполненном 2. мая 2017, 14:28

Браво / Бравоспектива (CD 2)

Дисковод: PIONEER DVD-RW  DVR-218L   Adapter: 0  ID: 0

Режим чтения                 : Достоверность
Использование точного потока : Да
Отключение кэша аудио        : Да
Использование указателей C2  : Нет

Коррекция смещения при чтении                     : 6
Способность читать области Lead-in и Lead-out     : Нет
Заполнение пропущенных сэмплов тишиной            : Да
Удаление блоков с тишиной в начале и конце        : Нет
При вычислениях CRC использовались нулевые сэмплы : Да
Интерфейс                                         : Встроенный Win32-интерфейс для Win NT/2000
Обработка зазоров                                 : Добавлено к предыдущему треку

Выходной формат          : Пользовательский кодировщик
Выбранный битрейт        : 128 kBit/s
Качество                 : Высокий
Добавление ID3-тега      : Нет
Утилита сжатия           : C:\Program Files (x86)\Exact Audio Copy\Flac\flac.exe
Дополнительные параметры : -V -7 -T "Genre=%genre%" -T "Artist=%artist%" -T "Title=%title%" -T "Album=%albumtitle%" -T "Date=%year%" -T "Tracknumber=%tracknr%" -T "Comment=%comment%" %source%

TOC извлечённого CD

     Трек |   Старт  | Длительность | Начальный сектор | Конечный сектор
    ---------------------------------------------------------------------
       1  |  0:00.00 |    3:07.11   |           0      |      14035     
       2  |  3:07.11 |    3:19.55   |       14036      |      29015     
       3  |  6:26.66 |    3:30.51   |       29016      |      44816     
       4  |  9:57.42 |    3:47.07   |       44817      |      61848     
       5  | 13:44.49 |    3:59.18   |       61849      |      79791     
       6  | 17:43.67 |    4:44.11   |       79792      |     101102     
       7  | 22:28.03 |    3:31.20   |      101103      |     116947     
       8  | 25:59.23 |    3:36.60   |      116948      |     133207     
       9  | 29:36.08 |    3:57.59   |      133208      |     151041     
      10  | 33:33.67 |    4:02.64   |      151042      |     169255     
      11  | 37:36.56 |    4:07.04   |      169256      |     187784     
      12  | 41:43.60 |    3:55.48   |      187785      |     205457     
      13  | 45:39.33 |    4:12.60   |      205458      |     224417     
      14  | 49:52.18 |    4:56.20   |      224418      |     246637     
      15  | 54:48.38 |    3:16.34   |      246638      |     261371     
      16  | 58:04.72 |    3:10.22   |      261372      |     275643     
      17  | 61:15.19 |    4:07.41   |      275644      |     294209     
      18  | 65:22.60 |    3:51.66   |      294210      |     311600     
      19  | 69:14.51 |    4:10.20   |      311601      |     330370     
      20  | 73:24.71 |    3:40.54   |      330371      |     346924     

Трек  1

     Имя файла E:\_VIDEO\_seriaЛЫ_\!!!muz\Браво - Бравоспектива (2017) [2xCD]\Бравоспектива (CD 2)\01 Этот город.wav

     Длина предзазора  0:00:02.00

     Пиковый уровень 97.7 %
     Скорость извлечения 1.1 X
     Качество трека 100.0 %
     CRC теста 86A94F23
     CRC копии 86A94F23
     Трек не обнаружен в базе AccurateRip
     Копирование... OK

Трек  2

     Имя файла E:\_VIDEO\_seriaЛЫ_\!!!muz\Браво - Бравоспектива (2017) [2xCD]\Бравоспектива (CD 2)\02 Это за окном рассвет.wav

     Пиковый уровень 95.7 %
     Скорость извлечения 1.2 X
     Качество трека 100.0 %
     CRC теста 9DC5C293
     CRC копии 9DC5C293
     Трек не обнаружен в базе AccurateRip
     Копирование... OK

Трек  3

     Имя файла E:\_VIDEO\_seriaЛЫ_\!!!muz\Браво - Бравоспектива (2017) [2xCD]\Бравоспектива (CD 2)\03 Ветер знает.wav

     Пиковый уровень 97.5 %
     Скорость извлечения 1.3 X
     Качество трека 100.0 %
     CRC теста 1442970F
     CRC копии 1442970F
     Трек не обнаружен в базе AccurateRip
     Копирование... OK

Трек  4

     Имя файла E:\_VIDEO\_seriaЛЫ_\!!!muz\Браво - Бравоспектива (2017) [2xCD]\Бравоспектива (CD 2)\04 Вера, надежда, любовь.wav

     Пиковый уровень 89.6 %
     Скорость извлечения 1.2 X
     Качество трека 99.9 %
     CRC теста E8AB18B5
     CRC копии E8AB18B5
     Трек не обнаружен в базе AccurateRip
     Копирование... OK

Трек  5

     Имя файла E:\_VIDEO\_seriaЛЫ_\!!!muz\Браво - Бравоспектива (2017) [2xCD]\Бравоспектива (CD 2)\05 Автомобиль.wav

     Пиковый уровень 88.9 %
     Скорость извлечения 1.5 X
     Качество трека 100.0 %
     CRC теста 9B118FDE
     CRC копии 9B118FDE
     Трек не обнаружен в базе AccurateRip
     Копирование... OK

Трек  6

     Имя файла E:\_VIDEO\_seriaЛЫ_\!!!muz\Браво - Бравоспектива (2017) [2xCD]\Бравоспектива (CD 2)\06 Тише, послушай.wav

     Пиковый уровень 97.7 %
     Скорость извлечения 1.6 X
     Качество трека 100.0 %
     CRC теста 8BFB8487
     CRC копии 8BFB8487
     Трек не обнаружен в базе AccurateRip
     Копирование... OK

Трек  7

     Имя файла E:\_VIDEO\_seriaЛЫ_\!!!muz\Браво - Бравоспектива (2017) [2xCD]\Бравоспектива (CD 2)\07 Сластена.wav

     Пиковый уровень 97.7 %
     Скорость извлечения 1.7 X
     Качество трека 100.0 %
     CRC теста DAC6A2CB
     CRC копии DAC6A2CB
     Трек не обнаружен в базе AccurateRip
     Копирование... OK

Трек  8

     Имя файла E:\_VIDEO\_seriaЛЫ_\!!!muz\Браво - Бравоспектива (2017) [2xCD]\Бравоспектива (CD 2)\08 Любовь не горит.wav

     Пиковый уровень 82.9 %
     Скорость извлечения 1.5 X
     Качество трека 99.9 %
     CRC теста AFC90274
     CRC копии AFC90274
     Трек не обнаружен в базе AccurateRip
     Копирование... OK

Трек  9

     Имя файла E:\_VIDEO\_seriaЛЫ_\!!!muz\Браво - Бравоспектива (2017) [2xCD]\Бравоспектива (CD 2)\09 Выше всех.wav

     Пиковый уровень 84.0 %
     Скорость извлечения 1.8 X
     Качество трека 100.0 %
     CRC теста 985610E4
     CRC копии 985610E4
     Трек не обнаружен в базе AccurateRip
     Копирование... OK

Трек 10

     Имя файла E:\_VIDEO\_seriaЛЫ_\!!!muz\Браво - Бравоспектива (2017) [2xCD]\Бравоспектива (CD 2)\10 Мода.wav

     Пиковый уровень 87.8 %
     Скорость извлечения 1.9 X
     Качество трека 100.0 %
     CRC теста 575CE278
     CRC копии 575CE278
     Трек не обнаружен в базе AccurateRip
     Копирование... OK

Трек 11

     Имя файла E:\_VIDEO\_seriaЛЫ_\!!!muz\Браво - Бравоспектива (2017) [2xCD]\Бравоспектива (CD 2)\11 Полет через Ла-Манш.wav

     Пиковый уровень 87.7 %
     Скорость извлечения 2.0 X
     Качество трека 100.0 %
     CRC теста 8802A7E6
     CRC копии 8802A7E6
     Трек не обнаружен в базе AccurateRip
     Копирование... OK

Трек 12

     Имя файла E:\_VIDEO\_seriaЛЫ_\!!!muz\Браво - Бравоспектива (2017) [2xCD]\Бравоспектива (CD 2)\12 Вот и я.wav

     Пиковый уровень 87.7 %
     Скорость извлечения 2.0 X
     Качество трека 100.0 %
     CRC теста 8745D490
     CRC копии 8745D490
     Трек не обнаружен в базе AccurateRip
     Копирование... OK

Трек 13

     Имя файла E:\_VIDEO\_seriaЛЫ_\!!!muz\Браво - Бравоспектива (2017) [2xCD]\Бравоспектива (CD 2)\13 Нет предела.wav

     Пиковый уровень 87.8 %
     Скорость извлечения 2.1 X
     Качество трека 100.0 %
     CRC теста 16FE4E2B
     CRC копии 16FE4E2B
     Трек не обнаружен в базе AccurateRip
     Копирование... OK

Трек 14

     Имя файла E:\_VIDEO\_seriaЛЫ_\!!!muz\Браво - Бравоспектива (2017) [2xCD]\Бравоспектива (CD 2)\14 Плохой, хороший, злой.wav

     Пиковый уровень 86.1 %
     Скорость извлечения 2.3 X
     Качество трека 100.0 %
     CRC теста D3BE9817
     CRC копии D3BE9817
     Трек не обнаружен в базе AccurateRip
     Копирование... OK

Трек 15

     Имя файла E:\_VIDEO\_seriaЛЫ_\!!!muz\Браво - Бравоспектива (2017) [2xCD]\Бравоспектива (CD 2)\15 Ray Davies.wav

     Пиковый уровень 82.8 %
     Скорость извлечения 2.2 X
     Качество трека 100.0 %
     CRC теста AA8627D8
     CRC копии AA8627D8
     Трек не обнаружен в базе AccurateRip
     Копирование... OK

Трек 16

     Имя файла E:\_VIDEO\_seriaЛЫ_\!!!muz\Браво - Бравоспектива (2017) [2xCD]\Бравоспектива (CD 2)\16 Перемена мест.wav

     Пиковый уровень 71.7 %
     Скорость извлечения 2.2 X
     Качество трека 100.0 %
     CRC теста 967C53E2
     CRC копии 967C53E2
     Трек не обнаружен в базе AccurateRip
     Копирование... OK

Трек 17

     Имя файла E:\_VIDEO\_seriaЛЫ_\!!!muz\Браво - Бравоспектива (2017) [2xCD]\Бравоспектива (CD 2)\17 36,6.wav

     Пиковый уровень 78.1 %
     Скорость извлечения 2.3 X
     Качество трека 100.0 %
     CRC теста 15500B5F
     CRC копии 15500B5F
     Трек не обнаружен в базе AccurateRip
     Копирование... OK

Трек 18

     Имя файла E:\_VIDEO\_seriaЛЫ_\!!!muz\Браво - Бравоспектива (2017) [2xCD]\Бравоспектива (CD 2)\18 Бег.wav

     Пиковый уровень 79.6 %
     Скорость извлечения 2.4 X
     Качество трека 100.0 %
     CRC теста 638B4761
     CRC копии 638B4761
     Трек не обнаружен в базе AccurateRip
     Копирование... OK

Трек 19

     Имя файла E:\_VIDEO\_seriaЛЫ_\!!!muz\Браво - Бравоспектива (2017) [2xCD]\Бравоспектива (CD 2)\19 Блюз прошлого лета.wav

     Пиковый уровень 80.6 %
     Скорость извлечения 2.5 X
     Качество трека 100.0 %
     CRC теста BC337B1F
     CRC копии BC337B1F
     Трек не обнаружен в базе AccurateRip
     Копирование... OK

Трек 20

     Имя файла E:\_VIDEO\_seriaЛЫ_\!!!muz\Браво - Бравоспектива (2017) [2xCD]\Бравоспектива (CD 2)\20 От Таганки до Кузьминок.wav

     Пиковый уровень 86.8 %
     Скорость извлечения 2.5 X
     Качество трека 100.0 %
     CRC теста 2354BB25
     CRC копии 2354BB25
     Трек не обнаружен в базе AccurateRip
     Копирование... OK

Ни одного трека нет в базе AccurateRip

Ошибок не произошло

Конец отчёта

==== Контрольная сумма отчёта F28D45FEFD1AC4798CA612E500E073D843843444365AA2106E4B1DA797F30C9A ====

Код:

REM GENRE Rock
REM DATE 2017
REM DISCID 3D121114
REM COMMENT "ExactAudioCopy v1.0b3"
PERFORMER "Браво"
TITLE "Бравоспектива (CD 2)"
FILE "01 Этот город.wav" WAVE
  TRACK 01 AUDIO
    TITLE "Этот город"
    PERFORMER "Браво"
    INDEX 01 00:00:00
FILE "02 Это за окном рассвет.wav" WAVE
  TRACK 02 AUDIO
    TITLE "Это за окном рассвет"
    PERFORMER "Браво"
    INDEX 01 00:00:00
FILE "03 Ветер знает.wav" WAVE
  TRACK 03 AUDIO
    TITLE "Ветер знает"
    PERFORMER "Браво"
    INDEX 01 00:00:00
FILE "04 Вера, надежда, любовь.wav" WAVE
  TRACK 04 AUDIO
    TITLE "Вера, надежда, любовь"
    PERFORMER "Браво"
    INDEX 01 00:00:00
FILE "05 Автомобиль.wav" WAVE
  TRACK 05 AUDIO
    TITLE "Автомобиль"
    PERFORMER "Браво"
    INDEX 01 00:00:00
FILE "06 Тише, послушай.wav" WAVE
  TRACK 06 AUDIO
    TITLE "Тише, послушай"
    PERFORMER "Браво"
    INDEX 01 00:00:00
FILE "07 Сластена.wav" WAVE
  TRACK 07 AUDIO
    TITLE "Сластена"
    PERFORMER "Браво"
    INDEX 01 00:00:00
FILE "08 Любовь не горит.wav" WAVE
  TRACK 08 AUDIO
    TITLE "Любовь не горит"
    PERFORMER "Браво"
    INDEX 01 00:00:00
FILE "09 Выше всех.wav" WAVE
  TRACK 09 AUDIO
    TITLE "Выше всех"
    PERFORMER "Браво"
    INDEX 01 00:00:00
FILE "10 Мода.wav" WAVE
  TRACK 10 AUDIO
    TITLE "Мода"
    PERFORMER "Браво"
    INDEX 01 00:00:00
FILE "11 Полет через Ла-Манш.wav" WAVE
  TRACK 11 AUDIO
    TITLE "Полет через Ла-Манш"
    PERFORMER "Браво"
    INDEX 01 00:00:00
FILE "12 Вот и я.wav" WAVE
  TRACK 12 AUDIO
    TITLE "Вот и я"
    PERFORMER "Браво"
    INDEX 01 00:00:00
FILE "13 Нет предела.wav" WAVE
  TRACK 13 AUDIO
    TITLE "Нет предела"
    PERFORMER "Браво"
    INDEX 01 00:00:00
FILE "14 Плохой, хороший, злой.wav" WAVE
  TRACK 14 AUDIO
    TITLE "Плохой, хороший, злой"
    PERFORMER "Браво"
    INDEX 01 00:00:00
FILE "15 Ray Davies.wav" WAVE
  TRACK 15 AUDIO
    TITLE "Ray Davies"
    PERFORMER "Браво"
    INDEX 01 00:00:00
FILE "16 Перемена мест.wav" WAVE
  TRACK 16 AUDIO
    TITLE "Перемена мест"
    PERFORMER "Браво"
    INDEX 01 00:00:00
FILE "17 36,6.wav" WAVE
  TRACK 17 AUDIO
    TITLE "36,6"
    PERFORMER "Браво"
    INDEX 01 00:00:00
FILE "18 Бег.wav" WAVE
  TRACK 18 AUDIO
    TITLE "Бег"
    PERFORMER "Браво"
    INDEX 01 00:00:00
FILE "19 Блюз прошлого лета.wav" WAVE
  TRACK 19 AUDIO
    TITLE "Блюз прошлого лета"
    PERFORMER "Браво"
    INDEX 01 00:00:00
FILE "20 От Таганки до Кузьминок.wav" WAVE
  TRACK 20 AUDIO
    TITLE "От Таганки до Кузьминок"
    PERFORMER "Браво"
    INDEX 01 00:00:00

Discogs

Этот торрент недоступен для скачивания без регистрации, однако доступен по публичной magnet-ссылке (источники с публичных трекеров). Перед использованием ссылки прочтите, пожалуйста Пользовательское соглашение, а также как можно дольше оставайтесь на раздаче! Для того, чтобы скачать сам торрент-файл (который видит больше источников), а также для того, чтобы поблагодарить релизера, вам необходимо зарегистрироваться. Если регистрироваться лень - вы можете также попробовать скачать релиз по нашим партнерским ссылкам ниже. Кроме того, зарегистрированным пользователям не показывается всплывающая реклама при скачивании.

[underverse.me].t96657.torrent
Трекер: Зарегистрирован   [ 16.02.2018 15:53 ]  
Статус: проверено (by Бишеп at 16.02.2018 15:54)
Поблагодарили: пока никто не поблагодарил...
Тип торрента: публичный - доступные источники с открытых трекеров: 
Размер: 1.37 GB (занимает 0.31 DVDR, для записи нужно 1 болванка DVDR/RW)
 
 

Яндекс.Метрика powered by Sphinx


В Н И М А Н И Е
Сайт не распространяет и не хранит электронные версии произведений, а лишь бесплатно и без коммерческой выгоды (не требуя взамен платы,
SMS и т.д.) предоставляет доступ к создаваемому пользователями каталогу ссылок на торрент-файлы, которые содержат только списки хеш-сумм.
Убедительная просьба с жалобами обращаться напрямую к пользователю, разместившему торрент файл.

Вверх