Loading...
Error

(Rock & Roll) Жанна Агузарова - Grand Collection (2009) [FLAC (Image+.Cue), Lossless]

Статистика раздачи
Размер:  479 MB   |    Зарегистрирован:  6 лет 3 месяца   |    Скачан:  15 раз

Полного источника не было: 1 месяц 30 дней

Сидов:  0  |  0 KB/s  ]   Личеров:  0  |  0 KB/s  ]

* - сиды/пиры с внешних источников

   
 
Автор Сообщение

Бишеп Пол:Муж

14-Июн-2016 17:18

Жанна Агузарова - Grand Collection

Жанр: Rock & Roll
Год выпуска: 2009
Источник: CD
Производитель диска: Квадро-Диск - GCR067N
Аудиокодек: FLAC
Тип рипа: Tracks+.CUE
Битрейт аудио: lossless
Продолжительность: 01:08:45


Треклист:
01. Ты, только ты
02. А снег идёт
03. Верю я
04. Свободная земля
05. Чёрный кот
06. В городе моём
07. Зимушка
08. Будь со мной
09. Счастливая любовь
10. Орёл
11. Жёлтые ботинки
12. В чём дело
13. Звезда
14. Один поцелуй моряка
15. Ленинградский рок-н-ролл
16. Мужчины в этой жизни
17. Старый отель
18. Hali Bob
19. Чудесная страна

Код:

Exact Audio Copy V1.0 beta 3 from 29. August 2011

EAC extraction logfile from 28. July 2014, 8:20

Жанна Агузарова / Grand Collection

Used drive  : SlimtypeDVD A DS8A4S   Adapter: 1  ID: 0

Read mode               : Secure
Utilize accurate stream : Yes
Defeat audio cache      : Yes
Make use of C2 pointers : No

Read offset correction                      : 6
Overread into Lead-In and Lead-Out          : No
Fill up missing offset samples with silence : Yes
Delete leading and trailing silent blocks   : No
Null samples used in CRC calculations       : Yes
Used interface                              : Native Win32 interface for Win NT & 2000

Used output format              : User Defined Encoder
Selected bitrate                : 1024 kBit/s
Quality                         : High
Add ID3 tag                     : No
Command line compressor         : D:\Program Files\Exact Audio Copy\Flac\flac.exe
Additional command line options : -V -8 -T "Date=%year%" -T "Genre=%genre%" %source%

TOC of the extracted CD

     Track |   Start  |  Length  | Start sector | End sector
    ---------------------------------------------------------
        1  |  0:00.00 |  3:52.37 |         0    |    17436   
        2  |  3:52.37 |  2:18.72 |     17437    |    27858   
        3  |  6:11.34 |  3:03.29 |     27859    |    41612   
        4  |  9:14.63 |  6:14.51 |     41613    |    69713   
        5  | 15:29.39 |  2:52.47 |     69714    |    82660   
        6  | 18:22.11 |  4:20.61 |     82661    |   102221   
        7  | 22:42.72 |  3:13.55 |    102222    |   116751   
        8  | 25:56.52 |  2:50.08 |    116752    |   129509   
        9  | 28:46.60 |  5:00.18 |    129510    |   152027   
       10  | 33:47.03 |  2:59.10 |    152028    |   165462   
       11  | 36:46.13 |  3:29.22 |    165463    |   181159   
       12  | 40:15.35 |  3:22.67 |    181160    |   196376   
       13  | 43:38.27 |  3:19.05 |    196377    |   211306   
       14  | 46:57.32 |  4:36.22 |    211307    |   232028   
       15  | 51:33.54 |  2:20.06 |    232029    |   242534   
       16  | 53:53.60 |  4:35.46 |    242535    |   263205   
       17  | 58:29.31 |  3:56.51 |    263206    |   280956   
       18  | 62:26.07 |  3:07.02 |    280957    |   294983   
       19  | 65:33.09 |  3:11.01 |    294984    |   309309   

Range status and errors

Selected range

     Filename G:\Браво\Агузарова Жанна\Жанна Агузарова - Grand Collection (2009)\Жанна Агузарова - Grand Collection.wav

     Peak level 97.9 %
     Extraction speed 2.8 X
     Range quality 100.0 %
     Test CRC F5D8A914
     Copy CRC F5D8A914
     Copy OK

No errors occurred

 
AccurateRip summary
 
Track  1  cannot be verified as accurate (confidence 2)  [31221E33], AccurateRip returned [ADC1172C]  (AR v2)
Track  2  cannot be verified as accurate (confidence 2)  [29D51D61], AccurateRip returned [30F2871B]  (AR v2)
Track  3  cannot be verified as accurate (confidence 2)  [E089D8AC], AccurateRip returned [B899CF4D]  (AR v2)
Track  4  cannot be verified as accurate (confidence 2)  [434B0616], AccurateRip returned [C4057836]  (AR v2)
Track  5  cannot be verified as accurate (confidence 2)  [443E1B5A], AccurateRip returned [E6CBBC54]  (AR v2)
Track  6  cannot be verified as accurate (confidence 2)  [FE393B85], AccurateRip returned [7D0A006C]  (AR v2)
Track  7  cannot be verified as accurate (confidence 2)  [85968F47], AccurateRip returned [29C5646D]  (AR v2)
Track  8  cannot be verified as accurate (confidence 2)  [86B79486], AccurateRip returned [6841D34C]  (AR v2)
Track  9  cannot be verified as accurate (confidence 2)  [F0D5197F], AccurateRip returned [850FB60D]  (AR v2)
Track 10  cannot be verified as accurate (confidence 2)  [BBEE73F5], AccurateRip returned [97B5BEDC]  (AR v2)
Track 11  cannot be verified as accurate (confidence 2)  [DE975BEC], AccurateRip returned [5D8AF3CE]  (AR v2)
Track 12  cannot be verified as accurate (confidence 2)  [A5432159], AccurateRip returned [CAE96A75]  (AR v2)
Track 13  cannot be verified as accurate (confidence 2)  [1A4314D2], AccurateRip returned [F3F496E8]  (AR v2)
Track 14  cannot be verified as accurate (confidence 2)  [D6268C71], AccurateRip returned [56645AD1]  (AR v2)
Track 15  cannot be verified as accurate (confidence 2)  [817059D3], AccurateRip returned [76563A75]  (AR v2)
Track 16  cannot be verified as accurate (confidence 2)  [E65DE53E], AccurateRip returned [56518374]  (AR v2)
Track 17  cannot be verified as accurate (confidence 2)  [9431269B], AccurateRip returned [4409A613]  (AR v2)
Track 18  cannot be verified as accurate (confidence 2)  [48AA2ACF], AccurateRip returned [0420F1C9]  (AR v2)
Track 19  cannot be verified as accurate (confidence 2)  [EEEEC053], AccurateRip returned [0BC7A004]  (AR v2)
 
No tracks could be verified as accurate
You may have a different pressing from the one(s) in the database

End of status report

==== Log checksum F577DBA0AADB6B19CDBB82168611D1CBE94BD3F997F7E29BD855A0D904329E9C ====

Код:

REM GENRE Rock
REM DATE 2009
REM DISCID 06101C13
REM COMMENT "ExactAudioCopy v1.0b3"
PERFORMER "Жанна Агузарова"
TITLE "Grand Collection"
FILE "Жанна Агузарова - Grand Collection.flac" WAVE
  TRACK 01 AUDIO
    TITLE "Ты, только ты"
    PERFORMER "Жанна Агузарова"
    INDEX 01 00:00:00
  TRACK 02 AUDIO
    TITLE "А снег идёт"
    PERFORMER "Жанна Агузарова"
    INDEX 01 03:52:37
  TRACK 03 AUDIO
    TITLE "Верю я"
    PERFORMER "Жанна Агузарова"
    INDEX 01 06:11:34
  TRACK 04 AUDIO
    TITLE "Свободная земля"
    PERFORMER "Жанна Агузарова"
    INDEX 01 09:14:63
  TRACK 05 AUDIO
    TITLE "Чёрный кот"
    PERFORMER "Жанна Агузарова"
    INDEX 01 15:29:39
  TRACK 06 AUDIO
    TITLE "В городе моём"
    PERFORMER "Жанна Агузарова"
    INDEX 01 18:22:11
  TRACK 07 AUDIO
    TITLE "Зимушка"
    PERFORMER "Жанна Агузарова"
    INDEX 01 22:42:72
  TRACK 08 AUDIO
    TITLE "Будь со мной"
    PERFORMER "Жанна Агузарова"
    INDEX 01 25:56:52
  TRACK 09 AUDIO
    TITLE "Счастливая любовь"
    PERFORMER "Жанна Агузарова"
    INDEX 01 28:46:60
  TRACK 10 AUDIO
    TITLE "Орёл"
    PERFORMER "Жанна Агузарова"
    INDEX 01 33:47:03
  TRACK 11 AUDIO
    TITLE "Жёлтые ботинки"
    PERFORMER "Жанна Агузарова"
    INDEX 01 36:46:13
  TRACK 12 AUDIO
    TITLE "В чём дело"
    PERFORMER "Жанна Агузарова"
    INDEX 01 40:15:35
  TRACK 13 AUDIO
    TITLE "Звезда"
    PERFORMER "Жанна Агузарова"
    INDEX 01 43:38:27
  TRACK 14 AUDIO
    TITLE "Один поцелуй моряка"
    PERFORMER "Жанна Агузарова"
    INDEX 01 46:57:32
  TRACK 15 AUDIO
    TITLE "Ленинградский рок-н-ролл"
    PERFORMER "Жанна Агузарова"
    INDEX 01 51:33:54
  TRACK 16 AUDIO
    TITLE "Мужчины в этой жизни"
    PERFORMER "Жанна Агузарова"
    INDEX 01 53:53:60
  TRACK 17 AUDIO
    TITLE "Старый отель"
    PERFORMER "Жанна Агузарова"
    INDEX 01 58:29:31
  TRACK 18 AUDIO
    TITLE "Hali Bob"
    PERFORMER "Жанна Агузарова"
    INDEX 01 62:26:07
  TRACK 19 AUDIO
    TITLE "Чудесная страна"
    PERFORMER "Жанна Агузарова"
    INDEX 01 65:33:09

Этот торрент недоступен для скачивания без регистрации, однако доступен по публичной magnet-ссылке (источники с публичных трекеров). Перед использованием ссылки прочтите, пожалуйста Пользовательское соглашение, а также как можно дольше оставайтесь на раздаче! Для того, чтобы скачать сам торрент-файл (который видит больше источников), а также для того, чтобы поблагодарить релизера, вам необходимо зарегистрироваться. Если регистрироваться лень - вы можете также попробовать скачать релиз по нашим партнерским ссылкам ниже. Кроме того, зарегистрированным пользователям не показывается всплывающая реклама при скачивании.

[underverse.su].t67271.torrent
Трекер: Зарегистрирован   [ 14.06.2016 17:18 ]  
Статус: проверено (by Бишеп at 14.06.2016 17:18)
Поблагодарили: 1 человек
Тип торрента: публичный - доступные источники с открытых трекеров: 
Размер: 479 MB (занимает 0.11 DVDR, для записи нужно 1 болванка DVDR/RW)
 
 

Яндекс.Метрика powered by Sphinx


В Н И М А Н И Е
Сайт не распространяет и не хранит электронные версии произведений, а лишь бесплатно и без коммерческой выгоды (не требуя взамен платы,
SMS и т.д.) предоставляет доступ к создаваемому пользователями каталогу ссылок на торрент-файлы, которые содержат только списки хеш-сумм.
Убедительная просьба с жалобами обращаться напрямую к пользователю, разместившему торрент файл.

Вверх