Loading...
Error

Королева Марго / La Reine Margot (Патрис Шеро / Patrice Chereau) [1994 г., драма, мелодрама, биография, история, BDRip 720p] [New Director's Cut] [MVO, AVO]

Статистика раздачи
Размер:  19,44 GB   |    Зарегистрирован:  5 лет 11 месяцев   |    Скачан:  5 раз

Полного источника не было: 2 года 2 месяца

Сидов:  0  |  0 KB/s  ]   Личеров:  0  |  0 KB/s  ]

* - сиды/пиры с внешних источников

   
 
Автор Сообщение

Kavasar Пол:Муж

11-Дек-2014 06:20


Королева Марго / La Reine Margot (1994) BDRip
[New Director's Cut]

Год выпуска: 1994
Производство: France, Italy, Germany / Renn Productions, France 2 Cinema, D.A. Films
Жанр: драма, мелодрама, биография, история

Режиссер: Патрис Шеро
Актеры: Изабель Аджани, Даниель Отой, Жан-Юг Англад, Венсан Перес, Вирна Лизи, Доминик Блан, Паскаль Греггори, Клаудио Амендола, Мигель Бозе, Азия Ардженто
Описание фильма: Август 1572 года. Францию раздирает религиозная война. Чтобы восстановить мир в стране, прекрасная и гордая принцесса Марго, сестра католического короля Карла IX, должна выйти замуж за протестанта Генриха Наваррского. А после свадьбы произошла кровавая резня Варфоломеевской ночи, организованная жестокой и коварной Екатериной Медичи.
Погибли тысячи протестантов, а один из них, тяжело раненный дворянин по имени Ла Моль, в отчаянной попытке спасти свою жизнь постучался в дверь Марго...
Перевод: профессиональный (многоголосый закадровый), авторский (одноголосый закадровый)
Вид субтитров: вшитые отключаемые
Язык субтитров: русские, французкие, английские
Рейтинг MPAA: R - Детям до 17 лет обязательно присутствие родителей
Дата мировой премьеры: 13 мая 1994
Дата выхода DVD релиза: 28 октября 2008, «Парадиз Медиа»
Продолжительность: 02:38:37
Качество: BDRip (720p)

Видео: MPEG-4 AVC/H.264, 1280 x 692 (1,85:1), 12 000 kbps, 23.976 fps, 0.565 b/px
Аудио # 1: AC3, 2 ch, 192 kbps, 48 000 Hz [многоголосый закадровый (Скит)]
Аудио # 2: DTS, 6 ch, 1509 kbps, 48 000 Hz [многоголосый закадровый (DVDXpert)]
Аудио # 3: AC3, 2 ch, 192 kbps, 48 000 Hz [многоголосый закадровый (Тивионика)]
Аудио # 4: DTS, 6 ch, 1509 kbps, 48 000 Hz [авторский одноголосый закадровый (Ю.Сербин)]
Аудио # 5: DTS, 6 ch, 1509 kbps, 48 000 Hz [авторский одноголосый закадровый (неизвестный) со вставками Ю.Сербина]
Аудио # 6: AC3, 6 ch, 640 kbps, 48 000 Hz [оригинальный (French)]

Код:

Общее
Уникальный идентификатор                 : 223490207468036747699466974215977035925 (0xA822A5F5F0B5E08FBA4F64BE757FE895)
Полное имя                               : E:\Video-Torrent\[1994] Королева Марго [BDRip] [720p].mkv
Формат                                   : Matroska
Версия формата                           : Version 4 / Version 2
Размер файла                             : 19,4 Гбайт
Продолжительность                        : 2 ч. 38 м.
Общий поток                              : 17,5 Мбит/сек
Название фильма                          : Королева Марго / Queen Margot / La reine Margot (1994) [New Director's Cut] BDRip [720p]
Дата кодирования                         : UTC 2014-10-20 18:40:49
Программа кодирования                    : mkvmerge v7.2.0 ('On Every Street') 32bit built on Sep 13 2014 15:42:11
Библиотека кодирования                   : libebml v1.3.0 + libmatroska v1.4.1
_STATISTICS_WRITING_APP                  : mkvmerge v7.2.0 ('On Every Street') 32bit built on Sep 13 2014 15:42:11
_STATISTICS_WRITING_DATE_UTC             : 2014-10-20 18:40:49
_STATISTICS_TAGS                         : BPS DURATION NUMBER_OF_FRAMES NUMBER_OF_BYTES
DURATION                                 : 02:37:51.212000000
NUMBER_OF_FRAMES                         : 1555
NUMBER_OF_BYTES                          : 35789

Видео
Идентификатор                            : 1
Формат                                   : AVC
Формат/Информация                        : Advanced Video Codec
Профиль формата                          : High@L4.1
Параметр CABAC формата                   : Да
Параметр ReFrames формата                : 9 кадров
Идентификатор кодека                     : V_MPEG4/ISO/AVC
Продолжительность                        : 2 ч. 38 м.
Битрейт                                  : 12,0 Мбит/сек
Ширина                                   : 1280 пикселей
Высота                                   : 692 пикселя
Соотношение сторон                       : 1,85:1
Режим частоты кадров                     : Постоянный
Частота кадров                           : 23,976 кадра/сек
Цветовое пространство                    : YUV
Субдискретизация насыщенности            : 4:2:0
Битовая глубина                          : 8 бит
Тип развёртки                            : Прогрессивная
Бит/(Пиксели*Кадры)                      : 0.565
Размер потока                            : 12,9 Гбайт (66%)
Заголовок                                : [1994] Королева Марго [BDRip] [720p]
Библиотека кодирования                   : x264 core 142 r2431+42 c69a006 tMod [8-bit@all X86_64]
Настройки программы                      : cabac=1 / ref=9 / deblock=1:-3:-3 / analyse=0x3:0x133 / me=esa / subme=10 / psy=1 / fade_compensate=0.00 / psy_rd=1.10:0.70 / mixed_ref=1 / me_range=24 / chroma_me=1 / trellis=2 / 8x8dct=1 / cqm=0 / deadzone=21,11 / fast_pskip=0 / chroma_qp_offset=-4 / threads=6 / lookahead_threads=1 / sliced_threads=0 / nr=0 / decimate=1 / interlaced=0 / bluray_compat=0 / constrained_intra=0 / fgo=0 / bframes=9 / b_pyramid=2 / b_adapt=2 / b_bias=0 / direct=3 / weightb=1 / open_gop=0 / weightp=2 / keyint=250 / keyint_min=23 / scenecut=40 / intra_refresh=0 / rc_lookahead=40 / rc=2pass / mbtree=0 / bitrate=12000 / ratetol=1.0 / qcomp=0.70 / qpmin=0:0:0 / qpmax=69:69:69 / qpstep=4 / cplxblur=20.0 / qblur=0.5 / vbv_maxrate=62500 / vbv_bufsize=78125 / nal_hrd=none / filler=0 / ip_ratio=1.30 / pb_ratio=1.20 / aq=1:0.80 / aq-sensitivity=10.00 / aq-factor=1.00:1.00:1.00 / aq2=0 / aq3=0
Язык                                     : French
Default                                  : Да
Forced                                   : Нет
Коэффициенты матрицы                     : BT.709
_STATISTICS_WRITING_APP                  : mkvmerge v7.2.0 ('On Every Street') 32bit built on Sep 13 2014 15:42:11
_STATISTICS_WRITING_DATE_UTC             : 2014-10-20 18:40:49
_STATISTICS_TAGS                         : BPS DURATION NUMBER_OF_FRAMES NUMBER_OF_BYTES
DURATION                                 : 02:38:37.300000000
NUMBER_OF_FRAMES                         : 228187
NUMBER_OF_BYTES                          : 14264469018

Аудио #1
Идентификатор                            : 2
Формат                                   : AC-3
Формат/Информация                        : Audio Coding 3
Расширение режима                        : CM (complete main)
Параметр Endianness формата              : Big
Идентификатор кодека                     : A_AC3
Продолжительность                        : 2 ч. 38 м.
Вид битрейта                             : Постоянный
Битрейт                                  : 192 Кбит/сек
Каналы                                   : 2 канала
Расположение каналов                     : Front: L R
Частота                                  : 48,0 КГц
Битовая глубина                          : 16 бит
Метод сжатия                             : С потерями
Размер потока                            : 218 Мбайт (1%)
Заголовок                                : Многоголосый  закадровый <<Скит>>
Язык                                     : Russian
Default                                  : Да
Forced                                   : Нет

Аудио #2
Идентификатор                            : 3
Формат                                   : DTS
Формат/Информация                        : Digital Theater Systems
Режим                                    : 16
Параметр Endianness формата              : Big
Идентификатор кодека                     : A_DTS
Продолжительность                        : 2 ч. 38 м.
Вид битрейта                             : Постоянный
Битрейт                                  : 1509 Кбит/сек
Каналы                                   : 6 каналов
Расположение каналов                     : Front: L C R, Side: L R, LFE
Частота                                  : 48,0 КГц
Битовая глубина                          : 16 бит
Метод сжатия                             : С потерями
Размер потока                            : 1,67 Гбайт (9%)
Заголовок                                : Многоголосый  закадровый <<DVDXpert>>
Язык                                     : Russian
Default                                  : Нет
Forced                                   : Нет

Аудио #3
Идентификатор                            : 4
Формат                                   : AC-3
Формат/Информация                        : Audio Coding 3
Расширение режима                        : CM (complete main)
Параметр Endianness формата              : Big
Идентификатор кодека                     : A_AC3
Продолжительность                        : 2 ч. 38 м.
Вид битрейта                             : Постоянный
Битрейт                                  : 192 Кбит/сек
Каналы                                   : 2 канала
Расположение каналов                     : Front: L R
Частота                                  : 48,0 КГц
Битовая глубина                          : 16 бит
Метод сжатия                             : С потерями
Размер потока                            : 218 Мбайт (1%)
Заголовок                                : Двуголосый  закадровый <<Тивионика>>
Язык                                     : Russian
Default                                  : Нет
Forced                                   : Нет

Аудио #4
Идентификатор                            : 5
Формат                                   : DTS
Формат/Информация                        : Digital Theater Systems
Режим                                    : 16
Параметр Endianness формата              : Big
Идентификатор кодека                     : A_DTS
Продолжительность                        : 2 ч. 38 м.
Вид битрейта                             : Постоянный
Битрейт                                  : 1509 Кбит/сек
Каналы                                   : 6 каналов
Расположение каналов                     : Front: L C R, Side: L R, LFE
Частота                                  : 48,0 КГц
Битовая глубина                          : 16 бит
Метод сжатия                             : С потерями
Размер потока                            : 1,67 Гбайт (9%)
Заголовок                                : Одноголосый закадровый <<Ю.Сербин>>
Язык                                     : Russian
Default                                  : Нет
Forced                                   : Нет

Аудио #5
Идентификатор                            : 6
Формат                                   : DTS
Формат/Информация                        : Digital Theater Systems
Режим                                    : 16
Параметр Endianness формата              : Big
Идентификатор кодека                     : A_DTS
Продолжительность                        : 2 ч. 38 м.
Вид битрейта                             : Постоянный
Битрейт                                  : 1509 Кбит/сек
Каналы                                   : 6 каналов
Расположение каналов                     : Front: L C R, Side: L R, LFE
Частота                                  : 48,0 КГц
Битовая глубина                          : 16 бит
Метод сжатия                             : С потерями
Размер потока                            : 1,67 Гбайт (9%)
Заголовок                                : Одноголосый закадровый (неизвестный) со вставками Ю.Сербина
Язык                                     : Russian
Default                                  : Нет
Forced                                   : Нет

Аудио #6
Идентификатор                            : 7
Формат                                   : AC-3
Формат/Информация                        : Audio Coding 3
Расширение режима                        : CM (complete main)
Параметр Endianness формата              : Big
Идентификатор кодека                     : A_AC3
Продолжительность                        : 2 ч. 38 м.
Вид битрейта                             : Постоянный
Битрейт                                  : 640 Кбит/сек
Каналы                                   : 6 каналов
Расположение каналов                     : Front: L C R, Side: L R, LFE
Частота                                  : 48,0 КГц
Битовая глубина                          : 16 бит
Метод сжатия                             : С потерями
Размер потока                            : 726 Мбайт (4%)
Заголовок                                : Оригинальный
Язык                                     : French
Default                                  : Нет
Forced                                   : Нет

Текст #1
Идентификатор                            : 8
Формат                                   : UTF-8
Идентификатор кодека                     : S_TEXT/UTF8
Идентификатор кодека/Информация          : UTF-8 Plain Text
Заголовок                                : Русские
Язык                                     : Russian
Default                                  : Нет
Forced                                   : Нет

Текст #2
Идентификатор                            : 9
Формат                                   : UTF-8
Идентификатор кодека                     : S_TEXT/UTF8
Идентификатор кодека/Информация          : UTF-8 Plain Text
Заголовок                                : French
Язык                                     : French
Default                                  : Нет
Forced                                   : Нет

Текст #3
Идентификатор                            : 10
Формат                                   : UTF-8
Идентификатор кодека                     : S_TEXT/UTF8
Идентификатор кодека/Информация          : UTF-8 Plain Text
Заголовок                                : English
Язык                                     : English
Default                                  : Нет
Forced                                   : Нет
Британская академия, 1996 год

Номинации (1):

*** Лучший фильм на иностранном языке

Оскар, 1995 год

Номинации (1):

*** Лучшие костюмы

Золотой глобус, 1995 год

Номинации (1):

*** Лучший фильм на иностранном языке — «Франция»

Сезар, 1995 год

Победитель (5):

*** Лучшая актриса (Изабель Аджани)
*** Лучший актер второго плана (Жан-Юг Англад)
*** Лучшая актриса второго плана (Вирна Лизи)
*** Лучшая работа оператора
*** Лучшие костюмы

Каннский кинофестиваль, 1994 год

Победитель (2):

*** Приз жюри
*** Серебряная премия за лучшую женскую роль (Вирна Лизи)

Номинации (1):

*** Золотая пальмовая ветвь

Скриншоты:
pic pic pic pic
Для увеличения картинки щелкните мышкой по превью

Этот торрент недоступен для скачивания без регистрации, однако доступен по публичной magnet-ссылке (источники с публичных трекеров). Перед использованием ссылки прочтите, пожалуйста Пользовательское соглашение, а также как можно дольше оставайтесь на раздаче! Для того, чтобы скачать сам торрент-файл (который видит больше источников), а также для того, чтобы поблагодарить релизера, вам необходимо зарегистрироваться. Если регистрироваться лень - вы можете также попробовать скачать релиз по нашим партнерским ссылкам ниже. Кроме того, зарегистрированным пользователям не показывается всплывающая реклама при скачивании.

[underverse.su].t47279.torrent
Трекер: Зарегистрирован   [ 11.12.2014 06:20 ]  

Статус: проверено (by Паукан at 13.03.2015 17:10)
Поблагодарили: пока никто не поблагодарил...
Тип торрента: публичный - доступные источники с открытых трекеров: 
Размер: 19,44 GB (занимает 4,44 DVDR, для записи нужно 5 болванок DVDR/RW)
 
 
Похожие темы
Форум Тема Автор Торрент Отв. Посл. сооб.
* Зарубежное кино [DVDRip, Low-Res HDRip, и т.д.] Королева Мария / Королева Румынии - Мария / Queen Marie of Romania (Алексис Кехилл, Алексис Свит Кэхилл, Бриджит Дродхофф) [2019 г., драма, WEB-DLRip] Dub (iTunes) eXtatik
22 | 1

0 | 108

5

17.10.2020 07:01

* Зарубежное кино [DVDRip, Low-Res HDRip, и т.д.] Королева Мария / Королева Румынии - Мария / Queen Marie of Romania (Алексис Кехилл, Алексис Свит Кэхилл, Бриджит Дродхофф) [2019 г., драма, WEB-DLRip-AVC] Dub (iTunes) 90ytr90
9 | 0

0 | 151

1

17.10.2020 19:46

* Зарубежное кино [HDDVDRip / BDRip / WEB-DL / HDTV 1080/720р] Королева Мария / Королева Румынии - Мария / Queen Marie of Romania (Алексис Кехилл, Алексис Свит Кэхилл, Бриджит Дродхофф) [2019 г., драма, WEB-DL 1080p] Dub (iTunes) 90ytr90
18 | 0

0 | 159

7

17.10.2020 19:44

Grizli Пол:Муж

14-Дек-2014 10:05

Очень люблю это кино.

31-Янв-2018 17:58

Топик был перенесен из форума Зарубежное кино [HDDVDRip / BDRip / WEB-DL / HDTV 1080/720р] в форум Архив (зарубежное кино высокого качества)


[cron robot]
 

Яндекс.Метрика powered by Sphinx


В Н И М А Н И Е
Сайт не распространяет и не хранит электронные версии произведений, а лишь бесплатно и без коммерческой выгоды (не требуя взамен платы,
SMS и т.д.) предоставляет доступ к создаваемому пользователями каталогу ссылок на торрент-файлы, которые содержат только списки хеш-сумм.
Убедительная просьба с жалобами обращаться напрямую к пользователю, разместившему торрент файл.

Вверх