Loading...
Error

(Rock & Roll) Браво - Live in Moscow (1994) [FLAC (Image+.CUE), Lossless]

Статистика раздачи
Размер:  502 MB   |    Зарегистрирован:  8 лет 7 месяцев   |    Скачан:  4 раза

Полного источника не было: 6 месяцев

Сидов:  0  |  0 KB/s  ]   Личеров:  0  |  0 KB/s  ]

* - сиды/пиры с внешних источников

   
 
Автор Сообщение

Бишеп Пол:Муж

22-Фев-2014 14:46

Браво - Live in Moscow

Жанр: Rock & Roll
Год выпуска: 1994
Производитель диска: Generai Records GR 69410 CD
Аудиокодек: FLAC
Тип рипа: Image+.CUE
Битрейт аудио: Lossless
Продолжительность: 01:14:04
Треклист:
01. Вступление
02. Добрый вечер, Москва!
03. Мне грустно и легко
04. Вася
05. Стильный оранжевый галстук
06. Я - то, что надо
07. Верю я
08. Открытие
09. Чудесная страна
10. Будь со мной
11. Старый отель
12. Желтые ботинки
13. Медицинский институт
14. Звездный каталог
15. Кошки
16. Московский бит
17. Пилот 12-45
18. Как жаль
19. Черный кот
20. Ленинградский рок-н-ролл
21. Вот и все
22. Окончание

Exact Audio Copy V1.0 beta 3 from 29. August 2011

Отчёт EAC об извлечении, выполненном 12. января 2012, 10:38

Браво / Live in Moscow

Дисковод: HL-DT-STDVD-ROM GDR8161B Adapter: 0 ID: 2

Режим чтения : Достоверность
Использование точного потока : Да
Отключение кэша аудио : Да
Использование указателей C2 : Нет

Коррекция смещения при чтении : 102
Способность читать области Lead-in и Lead-out : Нет
Заполнение пропущенных сэмплов тишиной : Да
Удаление блоков с тишиной в начале и конце : Нет
При вычислениях CRC использовались нулевые сэмплы : Да
Интерфейс : Установленный внешний ASPI-интерфейс

Выходной формат : Пользовательский кодировщик
Выбранный битрейт : 1024 kBit/s
Качество : Высокий
Добавление ID3-тега : Нет
Утилита сжатия : D:\Program Files\Exact Audio Copy\FLAC\FLAC.EXE
Дополнительные параметры : -V -8 -T "Date=%year%" -T "Genre=%genre%" %source%

TOC извлечённого CD

Трек | Старт | Длительность | Начальный сектор | Конечный сектор
---------------------------------------------------------------------
1 | 0:00.00 | 0:13.25 | 0 | 999
2 | 0:13.25 | 3:06.25 | 1000 | 14974
3 | 3:19.50 | 3:32.43 | 14975 | 30917
4 | 6:52.18 | 3:25.49 | 30918 | 46341
5 | 10:17.67 | 3:33.11 | 46342 | 62327
6 | 13:51.03 | 5:29.32 | 62328 | 87034
7 | 19:20.35 | 3:26.45 | 87035 | 102529
8 | 22:47.05 | 2:08.52 | 102530 | 112181
9 | 24:55.57 | 2:48.53 | 112182 | 124834
10 | 27:44.35 | 3:13.37 | 124835 | 139346
11 | 30:57.72 | 3:52.43 | 139347 | 156789
12 | 34:50.40 | 4:26.57 | 156790 | 176796
13 | 39:17.22 | 2:42.03 | 176797 | 188949
14 | 41:59.25 | 5:54.45 | 188950 | 215544
15 | 47:53.70 | 3:28.00 | 215545 | 231144
16 | 51:21.70 | 4:12.55 | 231145 | 250099
17 | 55:34.50 | 2:22.59 | 250100 | 260808
18 | 57:57.34 | 3:46.24 | 260809 | 277782
19 | 61:43.58 | 3:04.28 | 277783 | 291610
20 | 64:48.11 | 4:13.06 | 291611 | 310591
21 | 69:01.17 | 4:45.18 | 310592 | 331984
22 | 73:46.35 | 0:17.55 | 331985 | 333314

Характеристики диапазона извлечения и сообщения об ошибках

Выбранный диапазон

Имя файла D:\Desktop\Браво - Live in Moscow 1994\Браво - Live in Moscow.wav

Пиковый уровень 94.4 %
Скорость извлечения 5.2 X
Качество диапазона 100.0 %
CRC теста B7928C5D
CRC копии B7928C5D
Копирование... OK

Ошибок не произошло

AccurateRip: сводка
Трек 1 отсутствует в базе данных
Трек 2 отсутствует в базе данных
Трек 3 отсутствует в базе данных
Трек 4 отсутствует в базе данных
Трек 5 отсутствует в базе данных
Трек 6 отсутствует в базе данных
Трек 7 отсутствует в базе данных
Трек 8 отсутствует в базе данных
Трек 9 отсутствует в базе данных
Трек 10 отсутствует в базе данных
Трек 11 отсутствует в базе данных
Трек 12 отсутствует в базе данных
Трек 13 отсутствует в базе данных
Трек 14 отсутствует в базе данных
Трек 15 отсутствует в базе данных
Трек 16 отсутствует в базе данных
Трек 17 отсутствует в базе данных
Трек 18 отсутствует в базе данных
Трек 19 отсутствует в базе данных
Трек 20 отсутствует в базе данных
Трек 21 отсутствует в базе данных
Трек 22 отсутствует в базе данных
Ни одного трека нет в базе AccurateRip

Конец отчёта

==== Контрольная сумма отчёта 17E12594DE1DD4AD138861476174023FF3462E24DB8188480DA10B2A86C27DCF ====

Этот торрент недоступен для скачивания без регистрации, однако доступен по публичной magnet-ссылке (источники с публичных трекеров). Перед использованием ссылки прочтите, пожалуйста Пользовательское соглашение, а также как можно дольше оставайтесь на раздаче! Для того, чтобы скачать сам торрент-файл (который видит больше источников), а также для того, чтобы поблагодарить релизера, вам необходимо зарегистрироваться. Если регистрироваться лень - вы можете также попробовать скачать релиз по нашим партнерским ссылкам ниже. Кроме того, зарегистрированным пользователям не показывается всплывающая реклама при скачивании.

[underverse.su].t36563.torrent
Трекер: Зарегистрирован   [ 22.02.2014 14:46 ]  
Статус: проверено (by Бишеп at 22.02.2014 14:48)
Поблагодарили: пока никто не поблагодарил...
Тип торрента: публичный - доступные источники с открытых трекеров: 
Размер: 502 MB (занимает 0.11 DVDR, для записи нужно 1 болванка DVDR/RW)
 
 

Яндекс.Метрика powered by Sphinx


В Н И М А Н И Е
Сайт не распространяет и не хранит электронные версии произведений, а лишь бесплатно и без коммерческой выгоды (не требуя взамен платы,
SMS и т.д.) предоставляет доступ к создаваемому пользователями каталогу ссылок на торрент-файлы, которые содержат только списки хеш-сумм.
Убедительная просьба с жалобами обращаться напрямую к пользователю, разместившему торрент файл.

Вверх