Loading...
Error

(Reggae, Rock, Rock & Roll) SuperHeavy - SuperHeavy (Limited deluxe edition) (2011) [FLAC (Image+.CUE), Lossless]

Статистика раздачи
Размер:  559 MB   |    Зарегистрирован:  7 лет 9 месяцев   |    Скачан:  7 раз

Полного источника не было: 1 месяц 18 дней

Сидов:  0  |  0 KB/s  ]   Личеров:  0  |  0 KB/s  ]

* - сиды/пиры с внешних источников

   
 
Автор Сообщение

Бишеп Пол:Муж

20-Авг-2013 17:41

SuperHeavy - SuperHeavy

Жанр: Reggae, Rock, Rock & Roll
Год выпуска: 2011
Производитель диска: A&M Records ‎– 2782118
Аудиокодек: FLAC
Тип рипа: Image+.CUE
Битрейт аудио: Lossless
Продолжительность: 01:08:54
Треклист:
01. Superheavy
02. Unbelievable
03. Miracle Worker
04. Energy
05. Satyameva Jayathe
06. One Day One Night
07. Never Gonna Change
08. Beautiful People
09. Rock Me Gently
10. I Can't Take It No More
11. I Don't Mind
12. World Keeps Turning
Bonus Tracks:
13. Mahiya
14. Warring People
15. Common Ground
16. Hey Captain

Exact Audio Copy V1.0 beta 3 from 29. August 2011

Отчёт EAC об извлечении, выполненном 22. октября 2011, 13:55

SuperHeavy / SuperHeavy (Limited deluxe edition)

Дисковод: Optiarc DVD RW AD-7200A Adapter: 3 ID: 1

Режим чтения : Достоверность
Использование точного потока : Да
Отключение кэша аудио : Да
Использование указателей C2 : Нет

Коррекция смещения при чтении : 48
Способность читать области Lead-in и Lead-out : Нет
Заполнение пропущенных сэмплов тишиной : Да
Удаление блоков с тишиной в начале и конце : Нет
При вычислениях CRC использовались нулевые сэмплы : Да
Интерфейс : Установленный внешний ASPI-интерфейс

Выходной формат : Пользовательский кодировщик
Выбранный битрейт : 128 kBit/s
Качество : Высокий
Добавление ID3-тега : Нет
Утилита сжатия : C:\Program Files (x86)\Exact Audio Copy\FLAC\FLAC.EXE
Дополнительные параметры : -V -8 -T "Date=%year%" -T "Genre=%genre%" %source%

TOC извлечённого CD

Трек | Старт | Длительность | Начальный сектор | Конечный сектор
---------------------------------------------------------------------
1 | 0:00.00 | 5:05.67 | 0 | 22941
2 | 5:05.67 | 3:50.58 | 22942 | 40249
3 | 8:56.50 | 4:09.35 | 40250 | 58959
4 | 13:06.10 | 3:42.13 | 58960 | 75622
5 | 16:48.23 | 4:07.64 | 75623 | 94211
6 | 20:56.12 | 4:37.04 | 94212 | 114990
7 | 25:33.16 | 4:23.62 | 114991 | 134777
8 | 29:57.03 | 5:00.08 | 134778 | 157285
9 | 34:57.11 | 6:00.30 | 157286 | 184315
10 | 40:57.41 | 3:21.01 | 184316 | 199391
11 | 44:18.42 | 4:59.02 | 199392 | 221818
12 | 49:17.44 | 3:46.73 | 221819 | 238841
13 | 53:04.42 | 3:26.29 | 238842 | 254320
14 | 56:30.71 | 5:05.72 | 254321 | 277267
15 | 61:36.68 | 3:43.28 | 277268 | 294020
16 | 65:20.21 | 3:33.22 | 294021 | 310017

Характеристики диапазона извлечения и сообщения об ошибках

Выбранный диапазон

Имя файла I:\Temp\SuperHeavy\SuperHeavy - SuperHeavy (Limited deluxe edition).wav

Пиковый уровень 100.0 %
Скорость извлечения 4.4 X
Качество диапазона 100.0 %
CRC теста DD150F14
CRC копии DD150F14
Копирование... OK

Ошибок не произошло

AccurateRip: сводка
Трек 1 : извлечено точно (доверие 1) [5A465116] (AR v1)
Трек 2 : извлечено точно (доверие 1) [7FD6D7C2] (AR v1)
Трек 3 : извлечено точно (доверие 1) [3E3C79EF] (AR v1)
Трек 4 : извлечено точно (доверие 1) [A1D72298] (AR v1)
Трек 5 : извлечено точно (доверие 1) [7CAE0AE2] (AR v1)
Трек 6 : извлечено точно (доверие 1) [98A0CD94] (AR v1)
Трек 7 : извлечено точно (доверие 1) [7E8799CC] (AR v1)
Трек 8 : извлечено точно (доверие 1) [4D9B25B1] (AR v1)
Трек 9 : извлечено точно (доверие 1) [24920E15] (AR v1)
Трек 10 : извлечено точно (доверие 1) [3C7D9446] (AR v1)
Трек 11 : извлечено точно (доверие 1) [DDD9CFA1] (AR v1)
Трек 12 : извлечено точно (доверие 1) [756DC8CE] (AR v1)
Трек 13 : извлечено точно (доверие 1) [0C65FFB4] (AR v1)
Трек 14 : извлечено точно (доверие 1) [80C39B5F] (AR v1)
Трек 15 : извлечено точно (доверие 1) [831D1928] (AR v1)
Трек 16 : извлечено точно (доверие 1) [F75B7EF3] (AR v1)
Все треки извлечены точно

Конец отчёта

==== Контрольная сумма отчёта 8DDD62871D8D88209E3EEE28C2F391635CCA36AA620C9B063AF3AFA4DA986CC8 ====
AUDIOCHECKER v2.0 beta (build 457) - by Dester - opdester@freemail.hu
~~~~~~~~~~~~~~~~~~~~~~~~~~~~~~~~~~
-=== НЕ РЕДАКТИРУЙТЕ ЭТОТ ФАЙЛ! ===-

Путь: ...\SuperHeavy

1 -=- SuperHeavy - SuperHeavy (Limited deluxe edition).flac -=- CDDA (100%)

243290788

Этот торрент недоступен для скачивания без регистрации, однако доступен по публичной magnet-ссылке (источники с публичных трекеров). Перед использованием ссылки прочтите, пожалуйста Пользовательское соглашение, а также как можно дольше оставайтесь на раздаче! Для того, чтобы скачать сам торрент-файл (который видит больше источников), а также для того, чтобы поблагодарить релизера, вам необходимо зарегистрироваться. Если регистрироваться лень - вы можете также попробовать скачать релиз по нашим партнерским ссылкам ниже. Кроме того, зарегистрированным пользователям не показывается всплывающая реклама при скачивании.

[underverse.su].t30184.torrent
Трекер: Зарегистрирован   [ 20.08.2013 17:41 ]  

Статус: проверено (by Бишеп at 20.08.2013 17:45)
Поблагодарили: 1 человек
Тип торрента: публичный - доступные источники с открытых трекеров: 
Размер: 559 MB (занимает 0,12 DVDR, для записи нужно 1 болванка DVDR/RW)
 
 
Похожие темы
Форум Тема Автор Торрент Отв. Посл. сооб.
Reggae (Reggae, Rocksteady, Lovers Rock) Ken Boothe - Inna de Yard (2017) [MP3, 320 kbps CBR] Darkferse
2 | 0

0 | 1093

1

21.12.2017 13:10

Reggae (Reggae, Rocksteady, Dub) The Frightnrs - More to Say Versions (2017) [MP3, 320 kbps CBR] Darkferse
0 | 0

0 | 1007

2

21.12.2017 13:13

Reggae (Lossless) (Reggae, Roots Reggae ) Fantan Mojah - Hail the King (2005) [FLAC (Tracks+.CUE), lossless] momon
0 | 0

1 | 3901

4

19.03.2013 17:48

Reggae (Lossless) (Reggae, Reggae-Pop, Funk, Soul) Eddy Grant - Killer On The Rampage (1983) [FLAC (Image+.Cue), Lossless] Бишеп
1 | 0

0 | 918

6

18.08.2019 09:23

Бишеп Пол:Муж

20-Авг-2013 17:43


Яндекс.Метрика powered by Sphinx


В Н И М А Н И Е
Сайт не распространяет и не хранит электронные версии произведений, а лишь бесплатно и без коммерческой выгоды (не требуя взамен платы,
SMS и т.д.) предоставляет доступ к создаваемому пользователями каталогу ссылок на торрент-файлы, которые содержат только списки хеш-сумм.
Убедительная просьба с жалобами обращаться напрямую к пользователю, разместившему торрент файл.

Вверх