Loading...
Error

Игорь Крутой и Игорь Николаев (Музыкальный Ринг на НТВ) [2010 г., Ток-Шоу, Pop, TVRip]

Статистика раздачи
Размер:  1.96 GB   |    Зарегистрирован:  9 лет 5 месяцев   |    Скачан:  0 раз

Полного источника не было: 3 года 7 месяцев

Сидов:  0  |  0 KB/s  ]   Личеров:  0  |  0 KB/s  ]

* - сиды/пиры с внешних источников

   
 
Автор Сообщение

матроскин Пол:Муж

18-Апр-2013 21:17

Игорь Крутой и Игорь Николаев (Музыкальный Ринг на НТВ)


Год выпуска: 2010
Жанр: Ток-Шоу, Pop
Страна: Россия
Ведущие: Михаил Боярский и Тимур Родригез
Описание:
5 ноября 2010 года в музыкальной рукопашной ринге сошлись тяжеловесы российской эстрады — Игорь Николаев и Игорь Крутой. Впервые главные маэстро России выяснят, кто из них самый крутой!

Беспрецедентное противостояние превратится в массовую битву, в которой «звездные» воины — Филипп Киркоров, Лариса Долина, Ирина Аллегрова, Алсу, Сергей Лазарев, Анжелика Варум, Леонид Агутин, Александр Серов, Юлия Проскурякова и другие — будут защищать своего композитора. В пылу сражения они пустят в ход все приемы: исполнят лучшие песни, перепоют хиты друг друга, раскроют «акулам пера» творческие (и не только) секреты, а некоторые не выдержат и устроят премьеру новой песни прямо в эфире.
Качество видео: TVRip

Продолжительность: 02:29:56
Формат: AVI
Видео: XviD, 704x400, ~1731 kbps
Аудио: русский, оригинал, MP3 2.0, ~128.00 kbps

Код:

[img]http://underver.se/images/wiz/duration.png[/img] [b]Продолжительность: [/b]02:29:56
[img]http://underver.se/images/wiz/info.png[/img] [b]Формат: [/b]avi
[img]http://underver.se/images/wiz/vtrack.png[/img] [b]Видео: [/b] XviD, 704x400, 1731 kbps
[img]http://underver.se/images/wiz/atrack.png[/img] [b]Аудио: [/b]русский, оригинал, MP3 2.0, 128 kbps
[spoiler="[b]MediaInfo[/b]"][code]General
Complete name                    : C:\Users\Security\Videos\Мамонов\Ring.avi
Format                           : AVI
Format/Info                      : Audio Video Interleave
File size                        : 1.96 GiB
Duration                         : 2h 29mn
Overall bit rate                 : 1 870 Kbps
Writing application              : VirtualDubMod 1.5.10.2 (build 2542/release)
Writing library                  : VirtualDubMod build 2542/release

Video
ID                               : 0
Format                           : MPEG-4 Visual
Format profile                   : Streaming [email protected]
Format settings, BVOP            : Yes
Format settings, QPel            : No
Format settings, GMC             : No warppoints
Format settings, Matrix          : Default (MPEG)
Muxing mode                      : Packed bitstream
Codec ID                         : XVID
Codec ID/Hint                    : XviD
Duration                         : 2h 29mn
Bit rate                         : 1 732 Kbps
Width                            : 704 pixels
Height                           : 400 pixels
Display aspect ratio             : 16/9
Frame rate                       : 25.000 fps
Resolution                       : 24 bits
Colorimetry                      : 4:2:0
Scan type                        : Progressive
Bits/(Pixel*Frame)               : 0.246
Stream size                      : 1.81 GiB (93%)
Writing library                  : XviD 1.2.1 (UTC 2008-12-04)

Audio
ID                               : 1
Format                           : MPEG Audio
Format version                   : Version 1
Format profile                   : Layer 3
Codec ID                         : 55
Codec ID/Hint                    : MP3
Duration                         : 2h 29mn
Bit rate mode                    : Constant
Bit rate                         : 128 Kbps
Channel(s)                       : 2 channels
Sampling rate                    : 48.0 KHz
Resolution                       : 16 bits
Stream size                      : 137 MiB (7%)
Alignment                        : Aligned on interleaves
Interleave, duration             : 40 ms (1.00 video frame)
Interleave, preload duration     : 504 ms

[/code][/spoiler]
picpicpicpicpic
Для увеличения картинки щелкните мышкой по превью

Этот торрент недоступен для скачивания без регистрации, однако доступен по публичной magnet-ссылке (источники с публичных трекеров). Перед использованием ссылки прочтите, пожалуйста Пользовательское соглашение, а также как можно дольше оставайтесь на раздаче! Для того, чтобы скачать сам торрент-файл (который видит больше источников), а также для того, чтобы поблагодарить релизера, вам необходимо зарегистрироваться. Если регистрироваться лень - вы можете также попробовать скачать релиз по нашим партнерским ссылкам ниже. Кроме того, зарегистрированным пользователям не показывается всплывающая реклама при скачивании.

[underverse.su].t26284.torrent
Трекер: Зарегистрирован   [ 18.04.2013 21:17 ]  
Статус: проверено (by Печаль'ka at 23.04.2013 15:29)
Поблагодарили: пока никто не поблагодарил...
Тип торрента: публичный - доступные источники с открытых трекеров: 
Размер: 1.96 GB (занимает 0.45 DVDR, для записи нужно 1 болванка DVDR/RW)
 
 


Последний раз редактировалось: матроскин (19.04.2013 06:07), всего редактировалось 1 раз

матроскин Пол:Муж

18-Апр-2013 21:20

.

Яндекс.Метрика powered by Sphinx


В Н И М А Н И Е
Сайт не распространяет и не хранит электронные версии произведений, а лишь бесплатно и без коммерческой выгоды (не требуя взамен платы,
SMS и т.д.) предоставляет доступ к создаваемому пользователями каталогу ссылок на торрент-файлы, которые содержат только списки хеш-сумм.
Убедительная просьба с жалобами обращаться напрямую к пользователю, разместившему торрент файл.

Вверх