Loading...
Error

Группа "Секрет"-Музыкальный ринг [1987 г., Ток-Шоу, Rock n Roll , TVRip]

Статистика раздачи
Размер:  825 MB   |    Зарегистрирован:  9 лет 5 месяцев   |    Скачан:  11 раз

Полного источника не было: 7 месяцев

Сидов:  0  |  0 KB/s  ]   Личеров:  0  |  0 KB/s  ]

* - сиды/пиры с внешних источников

   
 
Автор Сообщение

матроскин Пол:Муж

12-Апр-2013 16:13

Группа "Секрет"-Музыкальный ринг


Год выпуска: 1987
Жанр: Ток-Шоу, Rock n Roll
Страна: СССР
Описание:
Легендарная программа "Музыкальный ринг".
В этом выпуске Вам будет представлена группа Секрет
Уникальная для советского ТВ запись живого выступления в телепередаче Музыкальный Ринг группы «Секрет. Ведущая Музыкального Ринга Тамара Максимова.
Качество видео: TVRip

Продолжительность: 00:56:04
Формат: AVI
Видео: XviD, 640x480, ~1790 kbps
Аудио: русский, оригинал, MP3 2.0, ~255.72 kbps

Код:

[img]http://underver.se/images/wiz/duration.png[/img] [b]Продолжительность: [/b]00:56:04
[img]http://underver.se/images/wiz/info.png[/img] [b]Формат: [/b]avi
[img]http://underver.se/images/wiz/vtrack.png[/img] [b]Видео: [/b] XviD, 640x480, 1790 kbps
[img]http://underver.se/images/wiz/atrack.png[/img] [b]Аудио: [/b]русский, оригинал, MP3 2.0, 256 kbps
[spoiler="[b]MediaInfo[/b]"][code]General
Complete name                    : C:\Users\Security\Videos\Мамонов\Musikalnyi.ring-Sekret.1987.XviD.TVRip.avi
Format                           : AVI
Format/Info                      : Audio Video Interleave
File size                        : 825 MiB
Duration                         : 56mn 4s
Overall bit rate                 : 2 056 Kbps
Movie name                       : Музыкальный Ринг - Секрет - 1987
Original source form/Distributed : TV-5
Encoded by                       : TVRip by lzo
Recorded date                    : 1987
Mastered date                    : 05.01.09
Writing application              : VirtualDub build 30009/release
Original source form/Name        : Television

Video
ID                               : 0
Format                           : MPEG-4 Visual
Format profile                   : Streaming [email protected]
Format settings, BVOP            : Yes
Format settings, QPel            : No
Format settings, GMC             : No warppoints
Format settings, Matrix          : Default (MPEG)
Codec ID                         : XVID
Codec ID/Hint                    : XviD
Duration                         : 56mn 4s
Bit rate                         : 1 791 Kbps
Width                            : 640 pixels
Height                           : 480 pixels
Display aspect ratio             : 4/3
Frame rate                       : 25.000 fps
Resolution                       : 24 bits
Colorimetry                      : 4:2:0
Scan type                        : Progressive
Bits/(Pixel*Frame)               : 0.233
Stream size                      : 718 MiB (87%)
Writing library                  : XviD 1.1.2 (UTC 2006-11-01)

Audio
ID                               : 1
Format                           : MPEG Audio
Format version                   : Version 1
Format profile                   : Layer 3
Codec ID                         : 55
Codec ID/Hint                    : MP3
Duration                         : 56mn 4s
Bit rate mode                    : Constant
Bit rate                         : 256 Kbps
Channel(s)                       : 2 channels
Sampling rate                    : 44.1 KHz
Resolution                       : 16 bits
Stream size                      : 103 MiB (12%)
Alignment                        : Split accross interleaves
Interleave, duration             : 40 ms (1.00 video frame)
Interleave, preload duration     : 500 ms
Language                         : Russian

[/code][/spoiler]
picpicpicpicpicpic
Для увеличения картинки щелкните мышкой по превью

Этот торрент недоступен для скачивания без регистрации, однако доступен по публичной magnet-ссылке (источники с публичных трекеров). Перед использованием ссылки прочтите, пожалуйста Пользовательское соглашение, а также как можно дольше оставайтесь на раздаче! Для того, чтобы скачать сам торрент-файл (который видит больше источников), а также для того, чтобы поблагодарить релизера, вам необходимо зарегистрироваться. Если регистрироваться лень - вы можете также попробовать скачать релиз по нашим партнерским ссылкам ниже. Кроме того, зарегистрированным пользователям не показывается всплывающая реклама при скачивании.

[underverse.su].t26092.torrent
Трекер: Зарегистрирован   [ 12.04.2013 16:13 ]  
Статус: проверено (by Чертёнок at 12.04.2013 19:30)
Поблагодарили: 1 человек
Тип торрента: публичный - доступные источники с открытых трекеров: 
Размер: 825 MB (занимает 0.18 DVDR, для записи нужно 1 болванка DVDR/RW)
 
 


Последний раз редактировалось: матроскин (12.04.2013 16:21), всего редактировалось 1 раз

матроскин Пол:Муж

12-Апр-2013 16:15

.

Яндекс.Метрика powered by Sphinx


В Н И М А Н И Е
Сайт не распространяет и не хранит электронные версии произведений, а лишь бесплатно и без коммерческой выгоды (не требуя взамен платы,
SMS и т.д.) предоставляет доступ к создаваемому пользователями каталогу ссылок на торрент-файлы, которые содержат только списки хеш-сумм.
Убедительная просьба с жалобами обращаться напрямую к пользователю, разместившему торрент файл.

Вверх