Loading...
Error

Элвис / Elvis (Баз Лурман) [2022 г., Биография, драма, музыка, WEB-DLRip-AVC] Dub + Original (Eng) + Sub (Rus)

 
Автор Сообщение

Renesans Пол:Муж

12-Авг-2022 19:53

Элвис / Elvis


Год выпуска: 2022
Жанр: Биография, драма, музыка
Режиссер-постановщик: Баз Лурман
В ролях: Остин Батлер, Коди Смит-Макфи, Том Хэнкс, Дэвид Уинам, Дэйкр Монтгомери, Люк Брейси, Оливия ДеДжонг, Ричард Роксбург, Келвин Харрисон-мл., Ксавьер Сэмюэл, Кейт Малвани, Элизабет Каллен, Наташа Бассетт, Мелина Видлер, Леон Форд, Кристофер Соммерс, Джош МакКонвилл, Гэри Кларк-младший, Хелен Томсон, Чарльз Граундс, Чайдон Джей, Адам Данн, Йола, Гарет Дэвис, Алекс Раду, Элтон Мейсон, Лилли Уоллес, Майк Бингаман, Шэрон Брукс, Кристиан Маккарти, Дэвид Гэннон (II), Асаби Гудман, Патрик Ширер, Джек МакГирр, Сандро Коларелли, Ши Д'Монфор, Лиам Доннелли, Сильвана Аззи Эрас

Описание:
История жизни и музыки Элвиса Пресли через призму сложных взаимоотношений с его менеджером, полковником Томом Паркером. Они работали вместе более 20 лет: от начала карьеры Элвиса до его небывалой славы.



Страна: США, Австралия
Студия: Bazmark Films, Roadshow Entertainment, The Jackal Group
Продолжительность: 02:39:14
Перевод: Дублированный | Bravo Records Georgia
Субтитры: Русские (Forced x2, Fullx2), английские (Full, SDH)

Формат: Matroska
Качество: WEB-DLRip-AVC
Видео: 1024x428 at 23.976 fps, [email protected], ~1631 kbps
Звук 1: AC3, 6 ch, ~384 kbps - | Русский | | DUB | Bravo Records Georgia
Звук 2: AC3, 6 ch, ~448 kbps - | Английский | | Оригинал
Формат субтитров: softsub (SRT)

***Рип от: -=DoMiNo=-
x264 [info]: frame I:2506 Avg QP:18.74 size: 44493
x264 [info]: frame P:55580 Avg QP:19.59 size: 17409
x264 [info]: frame B:170981 Avg QP:21.48 size: 5083

General
Unique ID : 204615645088046811972098351459720655531 (0x99EF8A301AC77862C4B16AB56E5A72AB)
Complete name : D:Elvis.2022.WEB-DLRip.x264.seleZen.mkv
Format : Matroska
Format version : Version 4
File size : 2.74 GiB
Duration : 2 h 39 min
Overall bit rate : 2 466 kb/s
Movie name : Elvis.2022.WEB-DLRip.x264.seleZen
Encoded date : UTC 2022-08-12 19:18:24
Writing application : mkvmerge v63.0.0 ('Everything') 64-bit
Writing library : libebml v1.4.2 + libmatroska v1.6.4
Cover : Yes
Attachments : cover.jpg / small_cover.jpg

Video
ID : 1
Format : AVC
Format/Info : Advanced Video Codec
Format profile : [email protected]
Format settings : CABAC / 10 Ref Frames
Format settings, CABAC : Yes
Format settings, Reference : 10 frames
Codec ID : V_MPEG4/ISO/AVC
Duration : 2 h 39 min
Bit rate : 1 631 kb/s
Width : 1 024 pixels
Height : 428 pixels
Display aspect ratio : 2.40:1
Frame rate mode : Constant
Frame rate : 23.976 (24000/1001) FPS
Color space : YUV
Chroma subsampling : 4:2:0
Bit depth : 8 bits
Scan type : Progressive
Bits/(Pixel*Frame) : 0.155
Stream size : 1.81 GiB (66%)
Title : -=DoMiNo=-
Writing library : x264 core 164 by -=DoMiNo=-
Encoding settings : cabac=1 / ref=10 / deblock=1:-3:-3 / analyse=0x3:0x133 / me=umh / subme=10 / psy=1 / psy_rd=1.05:0.15 / mixed_ref=1 / me_range=32 / chroma_me=1 / trellis=2 / 8x8dct=1 / cqm=0 / deadzone=21,11 / fast_pskip=0 / chroma_qp_offset=-3 / threads=17 / lookahead_threads=3 / sliced_threads=0 / nr=0 / decimate=0 / interlaced=0 / bluray_compat=0 / constrained_intra=0 / bframes=10 / b_pyramid=2 / b_adapt=2 / b_bias=0 / direct=1 / weightb=1 / open_gop=0 / weightp=2 / keyint=250 / keyint_min=23 / scenecut=40 / intra_refresh=0 / rc_lookahead=60 / rc=crf / mbtree=0 / crf=20.5 / qcomp=0.65 / qpmin=0 / qpmax=69 / qpstep=4 / vbv_maxrate=50000 / vbv_bufsize=62500 / crf_max=0.0 / nal_hrd=none / filler=0 / ip_ratio=1.30 / pb_ratio=1.25 / aq=3:0.80
Language : English
Default : Yes
Forced : No
Color range : Limited
Color primaries : BT.709
Transfer characteristics : BT.709
Matrix coefficients : BT.709

Audio #1
ID : 2
Format : AC-3
Format/Info : Audio Coding 3
Commercial name : Dolby Digital
Codec ID : A_AC3
Duration : 2 h 39 min
Bit rate mode : Constant
Bit rate : 384 kb/s
Channel(s) : 6 channels
Channel layout : L R C LFE Ls Rs
Sampling rate : 48.0 kHz
Frame rate : 31.250 FPS (1536 SPF)
Compression mode : Lossy
Stream size : 437 MiB (16%)
Title : DUB [Bravo Records Georgia]
Language : Russian
Service kind : Complete Main
Default : Yes
Forced : Yes

Audio #2
ID : 3
Format : AC-3
Format/Info : Audio Coding 3
Commercial name : Dolby Digital
Codec ID : A_AC3
Duration : 2 h 39 min
Bit rate mode : Constant
Bit rate : 448 kb/s
Channel(s) : 6 channels
Channel layout : L R C LFE Ls Rs
Sampling rate : 48.0 kHz
Frame rate : 31.250 FPS (1536 SPF)
Compression mode : Lossy
Stream size : 510 MiB (18%)
Title : Original
Language : English
Service kind : Complete Main
Default : No
Forced : No

Text #1
ID : 4
Format : UTF-8
Codec ID : S_TEXT/UTF8
Codec ID/Info : UTF-8 Plain Text
Duration : 2 h 38 min
Bit rate : 11 b/s
Count of elements : 240
Stream size : 13.5 KiB (0%)
Title : Forced v1
Language : Russian
Default : Yes
Forced : No

Text #2
ID : 5
Format : UTF-8
Codec ID : S_TEXT/UTF8
Codec ID/Info : UTF-8 Plain Text
Duration : 2 h 32 min
Bit rate : 3 b/s
Count of elements : 74
Stream size : 3.65 KiB (0%)
Title : Forced v2
Language : Russian
Default : No
Forced : No

Text #3
ID : 6
Format : UTF-8
Codec ID : S_TEXT/UTF8
Codec ID/Info : UTF-8 Plain Text
Duration : 2 h 38 min
Bit rate : 79 b/s
Count of elements : 1765
Stream size : 92.8 KiB (0%)
Title : Full v1
Language : Russian
Default : No
Forced : No

Text #4
ID : 7
Format : UTF-8
Codec ID : S_TEXT/UTF8
Codec ID/Info : UTF-8 Plain Text
Duration : 2 h 38 min
Bit rate : 79 b/s
Count of elements : 1753
Stream size : 92.2 KiB (0%)
Title : Full v2
Language : Russian
Default : No
Forced : No

Text #5
ID : 8
Format : UTF-8
Codec ID : S_TEXT/UTF8
Codec ID/Info : UTF-8 Plain Text
Duration : 2 h 39 min
Bit rate : 68 b/s
Count of elements : 2537
Stream size : 79.9 KiB (0%)
Title : Full
Language : English
Default : No
Forced : No

Text #6
ID : 9
Format : UTF-8
Codec ID : S_TEXT/UTF8
Codec ID/Info : UTF-8 Plain Text
Duration : 2 h 39 min
Bit rate : 78 b/s
Count of elements : 2827
Stream size : 91.2 KiB (0%)
Title : SDH
Language : English
Default : No
Forced : No

Menu
00:00:00.000 : en:Chapter 1
00:09:06.000 : en:Chapter 2
00:14:30.000 : en:Chapter 3
00:22:05.000 : en:Chapter 4
00:29:46.000 : en:Chapter 5
00:38:05.000 : en:Chapter 6
00:46:20.000 : en:Chapter 7
00:53:33.000 : en:Chapter 8
01:03:28.000 : en:Chapter 9
01:12:04.000 : en:Chapter 10
01:21:09.000 : en:Chapter 11
01:30:16.000 : en:Chapter 12
01:39:18.000 : en:Chapter 13
01:48:44.000 : en:Chapter 14
01:57:10.000 : en:Chapter 15
02:04:45.000 : en:Chapter 16
02:13:03.000 : en:Chapter 17
02:22:34.000 : en:Chapter 18
02:29:55.000 : en:Chapter 19
Релиз: Присоединяйся к: Кликай на баннеры.

11-Сен-2022 17:58

Топик был перенесен из форума Зарубежное кино [DVDRip, Low-Res HDRip, и т.д.] в форум Мусорка


ARI71
 

Яндекс.Метрика powered by Sphinx


В Н И М А Н И Е
Сайт не распространяет и не хранит электронные версии произведений, а лишь бесплатно и без коммерческой выгоды (не требуя взамен платы,
SMS и т.д.) предоставляет доступ к создаваемому пользователями каталогу ссылок на торрент-файлы, которые содержат только списки хеш-сумм.
Убедительная просьба с жалобами обращаться напрямую к пользователю, разместившему торрент файл.

Вверх