Loading...
Error

Воспламеняющая взглядом / Firestarter (Кит Томас) [2022 г., Фантастика, драма, триллер, ужасы, BDRip-AVC] Dub + Original (Eng) + Sub (Rus)

Статистика раздачи
Размер:  1.82 GB   |    Зарегистрирован:  1 месяц 13 дней   |    Скачан:  10 раз
Сидов:  2  |  0 KB/s  ]   Личеров:  0  |  0 KB/s  ]

* - сиды/пиры с внешних источников

   
 
Автор Сообщение

Renesans Пол:Муж

12-Авг-2022 18:37

Воспламеняющая взглядом / Firestarter


Информация о фильме:
Год выхода: 2022
Жанр: Фантастика, драма, триллер, ужасы
Режиссер: Кит Томас
Актеры фильма: Райан Кира Армстронг, Зак Эфрон, Глория Рубен, Кертвуд Смит, Сидни Леммон, Майкл Грейес, Тина Юнг, Невен Пайкич, Ланетт Уэр, Гэвин Макивер-Райт

Описание: Юная Чарли МакДжи пытается совладать со своей способностью поджигать вещи силой разума. «Воспламеняющая взглядом» — ремейк фильма 1984 года с Дрю Бэрримор.



Страна: США
Студия: Angry Adam Productions, Blumhouse Productions, Night Platform, Universal Pictures, Weed Road Pictures
Продолжительность: 01:34:18
Перевод: Дублированный - Лицензия



Информация о файле:
Кодек: AVC
Формат: MKV
Качество: BDRip-AVC | Firestarter.2022.BDREMUX.1080p.seleZen
Видео: MPEG-4 AVC, 1024x428, 23.976 fps, 1990 kb/s
Аудио RU: AC3, 6 ch, 48 kHz, 384 kbps
Аудио EN: AC3, 6 ch, 48 kHz, 384 kbps
Субтитры: Русские (Forced, full), английские

x264 info: frame I:974 Avg QP:11.94 size: 67030
x264 info: frame P:24358 Avg QP:14.68 size: 24561
x264 info: frame B:110339 Avg QP:15.71 size: 6742
General
Unique ID : 149900616730102541394160048462260531217 (0x70C5CF034F72D93A425D7A5F49EAF011)
Complete name : D:uTorrentРипы wolf1245Firestarter.2022.DUB.LIC.X264.BDRip-AVC.[wolf1245.ExKinoRay].mkv
Format : Matroska
Format version : Version 4
File size : 1.82 GiB
Duration : 1 h 34 min
Overall bit rate : 2 760 kb/s
Movie name : Firestarter.2022.DUB.LIC.X264.BDRip-AVC.[wolf1245.ExKinoRay]
Encoded date : UTC 2022-08-12 16:11:34
Writing application : mkvmerge v69.0.0 ('Day And Age') 64-bit
Writing library : libebml v1.4.2 + libmatroska v1.6.4

Video
ID : 1
Format : AVC
Format/Info : Advanced Video Codec
Format profile : [email protected]
Format settings : CABAC / 12 Ref Frames
Format settings, CABAC : Yes
Format settings, Reference frames : 12 frames
Codec ID : V_MPEG4/ISO/AVC
Duration : 1 h 34 min
Bit rate : 1 990 kb/s
Width : 1 024 pixels
Height : 428 pixels
Display aspect ratio : 2.40:1
Frame rate mode : Constant
Frame rate : 23.976 (24000/1001) FPS
Color space : YUV
Chroma subsampling : 4:2:0
Bit depth : 8 bits
Scan type : Progressive
Bits/(Pixel*Frame) : 0.189
Stream size : 1.31 GiB (72%)
Title : -=[wolf1245.ExKinoRay]=-
Writing library : x264 core 163 r3060 5db6aa6
Encoding settings : cabac=1 / ref=12 / deblock=1:-3:-2 / analyse=0x3:0x133 / me=umh / subme=11 / psy=1 / psy_rd=1.00:0.15 / mixed_ref=1 / me_range=32 / chroma_me=1 / trellis=2 / 8x8dct=1 / cqm=0 / deadzone=22,11 / fast_pskip=1 / chroma_qp_offset=-3 / threads=10 / lookahead_threads=2 / sliced_threads=0 / nr=0 / decimate=0 / interlaced=0 / bluray_compat=0 / constrained_intra=0 / bframes=12 / b_pyramid=2 / b_adapt=2 / b_bias=0 / direct=3 / weightb=1 / open_gop=0 / weightp=2 / keyint=240 / keyint_min=24 / scenecut=40 / intra_refresh=0 / rc_lookahead=100 / rc=2pass / mbtree=0 / bitrate=1990 / ratetol=1.0 / qcomp=0.75 / qpmin=0 / qpmax=69 / qpstep=4 / cplxblur=20.0 / qblur=0.5 / vbv_maxrate=50000 / vbv_bufsize=62500 / nal_hrd=none / filler=0 / ip_ratio=1.37 / pb_ratio=1.27 / aq=1:1.10
Language : English
Default : Yes
Forced : No

Audio #1
ID : 2
Format : AC-3
Format/Info : Audio Coding 3
Commercial name : Dolby Digital
Codec ID : A_AC3
Duration : 1 h 34 min
Bit rate mode : Constant
Bit rate : 384 kb/s
Channel(s) : 6 channels
Channel layout : L R C LFE Ls Rs
Sampling rate : 48.0 kHz
Frame rate : 31.250 FPS (1536 SPF)
Compression mode : Lossy
Stream size : 259 MiB (14%)
Title : DUB | LIC | RUS
Language : Russian
Service kind : Complete Main
Default : Yes
Forced : Yes

Audio #2
ID : 3
Format : AC-3
Format/Info : Audio Coding 3
Commercial name : Dolby Digital
Codec ID : A_AC3
Duration : 1 h 34 min
Bit rate mode : Constant
Bit rate : 384 kb/s
Channel(s) : 6 channels
Channel layout : L R C LFE Ls Rs
Sampling rate : 48.0 kHz
Frame rate : 31.250 FPS (1536 SPF)
Compression mode : Lossy
Stream size : 259 MiB (14%)
Title : Original | ENG
Language : English
Service kind : Complete Main
Default : No
Forced : No

Text #1
ID : 4
Format : UTF-8
Codec ID : S_TEXT/UTF8
Codec ID/Info : UTF-8 Plain Text
Duration : 1 h 11 min
Bit rate : 1 b/s
Count of elements : 20
Stream size : 763 Bytes (0%)
Title : Forced
Language : Russian
Default : Yes
Forced : Yes

Text #2
ID : 5
Format : UTF-8
Codec ID : S_TEXT/UTF8
Codec ID/Info : UTF-8 Plain Text
Duration : 1 h 30 min
Bit rate : 62 b/s
Count of elements : 1004
Stream size : 41.2 KiB (0%)
Title : Full
Language : Russian
Default : No
Forced : No

Text #3
ID : 6
Format : UTF-8
Codec ID : S_TEXT/UTF8
Codec ID/Info : UTF-8 Plain Text
Duration : 1 h 24 min
Bit rate : 46 b/s
Count of elements : 997
Stream size : 28.8 KiB (0%)
Title : Full
Language : English
Default : No
Forced : No

Text #4
ID : 7
Format : UTF-8
Codec ID : S_TEXT/UTF8
Codec ID/Info : UTF-8 Plain Text
Duration : 1 h 28 min
Bit rate : 50 b/s
Count of elements : 1163
Stream size : 32.8 KiB (0%)
Title : SDH
Language : English
Default : No
Forced : No

Menu
00:00:00.000 : :Chapter 01
00:02:55.467 : :Chapter 02
00:09:33.740 : :Chapter 03
00:13:53.249 : :Chapter 04
00:17:04.565 : :Chapter 05
00:23:46.008 : :Chapter 06
00:29:17.297 : :Chapter 07
00:35:31.963 : :Chapter 08
00:40:17.540 : :Chapter 09
00:45:21.177 : :Chapter 10
00:49:35.890 : :Chapter 11
00:56:08.657 : :Chapter 12
01:00:50.480 : :Chapter 13
01:06:27.275 : :Chapter 14
01:10:46.617 : :Chapter 15
01:13:14.765 : :Chapter 16
01:19:03.530 : :Chapter 17
01:23:04.146 : :Chapter 18
01:28:24.007 : :Chapter 19
01:30:20.498 : :Chapter 20
Автор релиза:

Этот торрент недоступен для скачивания без регистрации, однако доступен по публичной magnet-ссылке (источники с публичных трекеров). Перед использованием ссылки прочтите, пожалуйста Пользовательское соглашение, а также как можно дольше оставайтесь на раздаче! Для того, чтобы скачать сам торрент-файл (который видит больше источников), а также для того, чтобы поблагодарить релизера, вам необходимо зарегистрироваться. Если регистрироваться лень - вы можете также попробовать скачать релиз по нашим партнерским ссылкам ниже. Кроме того, зарегистрированным пользователям не показывается всплывающая реклама при скачивании.

[underver.se].t245285.torrent
Трекер: Зарегистрирован   [ 12.08.2022 18:37 ]  
Статус: проверено (by Robbertta at 13.08.2022 03:40)
Поблагодарили: 1 человек
Тип торрента: публичный - доступные источники с открытых трекеров: 
Размер: 1.82 GB (занимает 0.42 DVDR, для записи нужно 1 болванка DVDR/RW)
 
 

Яндекс.Метрика powered by Sphinx


В Н И М А Н И Е
Сайт не распространяет и не хранит электронные версии произведений, а лишь бесплатно и без коммерческой выгоды (не требуя взамен платы,
SMS и т.д.) предоставляет доступ к создаваемому пользователями каталогу ссылок на торрент-файлы, которые содержат только списки хеш-сумм.
Убедительная просьба с жалобами обращаться напрямую к пользователю, разместившему торрент файл.

Вверх