Loading...
Error

(Folk-Rock) Prairie Madness - Prairie Madness (1972/2022) [Hi-Res, FLAC, lossless]

Статистика раздачи
Размер:  1.4 GB   |    Зарегистрирован:  3 месяца 7 дней   |    Скачан:  3 раза

Полного источника не было: 29 дней

Сидов:  0  |  0 KB/s  ]   Личеров:  0  |  0 KB/s  ]

* - сиды/пиры с внешних источников

   
 
Автор Сообщение

Renesans Пол:Муж

20-Июн-2022 05:41

Prairie Madness - Prairie Madness


Год: 2022
Жанр: Folk-Rock

Продолжительность: 00:39:27
Формат/Кодек: FLAC (Hi-Res)
Битрейт аудио: lossless

Лицензия
01. Nothing for Sophia (00:04:29)
02. Up You Go (00:03:23)
03. Girl from Cincinnati (00:04:19)
04. Choo Choo Nairobi (00:03:31)
05. Moondust (00:05:27)
06. Shame the Children (00:03:17)
07. Sunbeam to His Heart (00:04:17)
08. Broke Down (00:04:57)
09. I'm Ready (00:05:43)
foobar2000 1.4.2 / Dynamic Range Meter 1.1.1
log date: 2022-06-18 09:04:24

--------------------------------------------------------------------------------
Analyzed: Prairie Madness / Prairie Madness
--------------------------------------------------------------------------------

DR Peak RMS Duration Track
--------------------------------------------------------------------------------
DR10 -0.35 dB -12.36 dB 4:30 01-Nothing for Sophia
DR9 -0.04 dB -13.58 dB 3:24 02-Up You Go
DR10 -0.18 dB -13.52 dB 4:20 03-Girl from Cincinnati
DR10 -0.49 dB -12.98 dB 3:31 04-Choo Choo Nairobi
DR11 -0.32 dB -13.64 dB 5:28 05-Moondust
DR10 -0.50 dB -12.64 dB 3:17 06-Shame the Children
DR9 -1.63 dB -13.61 dB 4:17 07-Sunbeam to His Heart
DR11 -0.16 dB -12.62 dB 4:57 08-Broke Down
DR10 -0.49 dB -13.74 dB 5:44 09-I'm Ready
--------------------------------------------------------------------------------

Number of tracks: 9
Official DR value: DR10

Samplerate: 192000 Hz
Channels: 2
Bits per sample: 24
Bitrate: 5026 kbps
Codec: FLAC
===========================================================================

Этот торрент недоступен для скачивания без регистрации, однако доступен по публичной magnet-ссылке (источники с публичных трекеров). Перед использованием ссылки прочтите, пожалуйста Пользовательское соглашение, а также как можно дольше оставайтесь на раздаче! Для того, чтобы скачать сам торрент-файл (который видит больше источников), а также для того, чтобы поблагодарить релизера, вам необходимо зарегистрироваться. Если регистрироваться лень - вы можете также попробовать скачать релиз по нашим партнерским ссылкам ниже. Кроме того, зарегистрированным пользователям не показывается всплывающая реклама при скачивании.

[underver.se].t243321.torrent
Трекер: Зарегистрирован   [ 20.06.2022 05:41 ]  
Статус: проверено (by Robbertta at 21.06.2022 07:39)
Поблагодарили: пока никто не поблагодарил...
Тип торрента: публичный - доступные источники с открытых трекеров: 
Размер: 1.4 GB (занимает 0.32 DVDR, для записи нужно 1 болванка DVDR/RW)
 
 

Яндекс.Метрика powered by Sphinx


В Н И М А Н И Е
Сайт не распространяет и не хранит электронные версии произведений, а лишь бесплатно и без коммерческой выгоды (не требуя взамен платы,
SMS и т.д.) предоставляет доступ к создаваемому пользователями каталогу ссылок на торрент-файлы, которые содержат только списки хеш-сумм.
Убедительная просьба с жалобами обращаться напрямую к пользователю, разместившему торрент файл.

Вверх