Loading...
Error

Человек — это случайность? Что заставило мозг расти / Human by Chance? The Gene That Made Our Brain Grow (Керстин Холл) [2020 г., Документальный, научно-популярный, DVB] DVO + Sub (Rus)

Статистика раздачи
Размер:  1.27 GB   |    Зарегистрирован:  6 месяцев   |    Скачан:  11 раз

Полного источника не было: 18 дней

Сидов:  0  |  0 KB/s  ]   Личеров:  0  |  0 KB/s  ]

* - сиды/пиры с внешних источников

   
 
Автор Сообщение

Renesans Пол:Муж

21-Мар-2022 08:17

Человек — это случайность? Что заставило мозг расти / Human by Chance? The Gene That Made Our Brain Grow


Год выпуска: 2020
Жанр: Документальный, научно-популярный
Режиссер: Керстин Холл

Описание:
Если сравнить нас с нашими ближайшими генетическими родственниками, например, шимпанзе, у людей будет мало физических преимуществ. Мы намного слабее, не можем двигаться так же быстро и ловко. Зато люди преуспевают в таких областях как наука и искусство, техника и образование. Эти достижения связаны с довольно крупным размером человеческого мозга, содержащим миллиарды нейронов, и его сложным строением. Именно быстрый рост нашего мозга, случившийся около двух миллионов лет назад, сделал человека видом, способным занять доминантное положение.

Страна: Германия
Студия: Hoferichter & Jacobs, MDR
Продолжительность: 00:51:55
Перевод: Профессиональный (двухголосый закадровый) СВ-Дубль

Кодек: AVC/H.264
Качество: DVB
Видео: [email protected]х576, ~ 3238 kbps
Аудио: Русский, MP2, 2 ch, ~192 kbps
Субтитры: Русские, отключаемые
Complete name : F:Наладки4еловек_случайность_.mkv
Format : Matroska
Format version : Version 4
File size : 1.27 GiB
Duration : 51 min 55 s
Overall bit rate : 3 500 kb/s
Encoded date : UTC 2022-03-10 15:50:22
Writing application : mkvmerge v6.6.0 ('The Edge Of The In Between') built on Dec 1 2013 17:55:00
Writing library : libebml v1.3.0 + libmatroska v1.4.1

Video
ID : 1
Format : AVC
Format/Info : Advanced Video Codec
Format profile : [email protected]
Format settings : CABAC / 4 Ref Frames
Format settings, CABAC : Yes
Format settings, Reference : 4 frames
Codec ID : V_MPEG4/ISO/AVC
Duration : 51 min 55 s
Bit rate : 3 238 kb/s
Width : 720 pixels
Height : 576 pixels
Display aspect ratio : 16:9
Frame rate mode : Constant
Frame rate : 25.000 FPS
Standard : Component
Color space : YUV
Chroma subsampling : 4:2:0
Bit depth : 8 bits
Scan type : Interlaced
Scan type, store method : Separated fields
Scan order : Top Field First
Bits/(Pixel*Frame) : 0.312
Stream size : 1.17 GiB (93%)
Default : Yes
Forced : No
Color range : Limited
Color primaries : BT.601 PAL
Transfer characteristics : BT.470 System B/G
Matrix coefficients : BT.470 System B/G

Audio
ID : 2
Format : MPEG Audio
Format version : Version 1
Format profile : Layer 2
Codec ID : A_MPEG/L2
Codec ID/Hint : MP2
Duration : 51 min 55 s
Bit rate mode : Constant
Bit rate : 192 kb/s
Channel(s) : 2 channels
Sampling rate : 48.0 kHz
Compression mode : Lossy
Stream size : 71.3 MiB (5%)
Language : Russian
Default : Yes
Forced : No

Text
ID : 3
Format : UTF-8
Codec ID : S_TEXT/UTF8
Codec ID/Info : UTF-8 Plain Text
Title : СВ-Дубль
Language : Russian
Default : No
Forced : No
Релиз от: kyba

Этот торрент недоступен для скачивания без регистрации, однако доступен по публичной magnet-ссылке (источники с публичных трекеров). Перед использованием ссылки прочтите, пожалуйста Пользовательское соглашение, а также как можно дольше оставайтесь на раздаче! Для того, чтобы скачать сам торрент-файл (который видит больше источников), а также для того, чтобы поблагодарить релизера, вам необходимо зарегистрироваться. Если регистрироваться лень - вы можете также попробовать скачать релиз по нашим партнерским ссылкам ниже. Кроме того, зарегистрированным пользователям не показывается всплывающая реклама при скачивании.

[underver.se].t237817.torrent
Трекер: Зарегистрирован   [ 21.03.2022 08:17 ]  
Статус: проверено (by Robbertta at 21.03.2022 09:11)
Поблагодарили: пока никто не поблагодарил...
Тип торрента: публичный - доступные источники с открытых трекеров: 
Размер: 1.27 GB (занимает 0.29 DVDR, для записи нужно 1 болванка DVDR/RW)
 
 

Яндекс.Метрика powered by Sphinx


В Н И М А Н И Е
Сайт не распространяет и не хранит электронные версии произведений, а лишь бесплатно и без коммерческой выгоды (не требуя взамен платы,
SMS и т.д.) предоставляет доступ к создаваемому пользователями каталогу ссылок на торрент-файлы, которые содержат только списки хеш-сумм.
Убедительная просьба с жалобами обращаться напрямую к пользователю, разместившему торрент файл.

Вверх