Loading...
Error

Она и Её Кот / Kanojo to Kanojo no neko (Макото Синкай) [1999 г., Мультфильм, Аниме, Короткометражка, Драма, BDRip-HEVC 1080p] Dub + DVO + VO + Sub (Rus)

Статистика раздачи
Размер:  361 MB   |    Зарегистрирован:  7 месяцев   |    Скачан:  2 раза

Полного источника не было: 7 месяцев

Сидов:  0  |  0 KB/s  ]   Личеров:  0  |  0 KB/s  ]

* - сиды/пиры с внешних источников

   
 
Автор Сообщение

Renesans Пол:Муж

17-Фев-2022 06:52

Она и Её Кот / Kanojo to Kanojo no neko


Название: Она и Её Кот
Оригинальное название: Kanojo to Kanojo no neko
Год выпуска: 1999
Жанр: Мультфильм, Аниме, Короткометражка, Драма
Режиссер: Макото Синкай
В ролях: Шинохара Мика, Макото Синкай

Описание:
Ранняя работа Синкая Макото, задуманная и осуществлённая им самостоятельно. "Она и Её кот" создана летом 1999 с использованием техники рисования от руки в сочетании с трёхмерной компьютерной графикой. Чтобы уменьшить нагрузку на процессор компьютера и ускорить процесс создания, вся работа была выполнена с применением только чёрного и белого цветов. В этой своей короткометражке Синкай Макото попытался превратить трепетное тепло, смутно ощущаемое одиночество бытия, тонкие чувства в образы и звук. И надо сказать, это ему блестяще удалось.


Страна: Япония
Студия: Авторская работа Макото Синкая
Продолжительность: 00:04:45
Перевод: Дублированный любительский, Любительский двухголосый закадровый, Любительский одноголосый закадровый

Кодек: HEVC (h.265)
Качество: BDRip-HEVC 1080p
Видео: 1440x1080, ~8393 Кбит/сек, HEVC, 10 бит
Аудио:
Аудио1: AC3, 2 ch, 192 Kbps - Русский, Дублированный любительский (Никита Танклиевский)
Аудио2: AC3, 2 ch, 192 Kbps - Русский, Любительский двухголосый закадровый (Мифоград: Elka, Элинар)
Аудио3: AC3, 2 ch, 192 Kbps - Русский, Любительский одноголосый закадровый (FassaD)
Аудио4: AC3, 6 ch, 512 Kbps - Украинский, Дублированный любительский (UA MAX)
Аудио5: AC3, 2 ch, 256 Kbps - Украинский, Любительский двухголосый закадровый (Uks And Kia)
Аудио6: AC3, 2 ch, 224 Kbps - Украинский, Любительский одноголосый закадровый (Жорж)
Аудио7: AC3, 6 ch, 640 Kbps - Японский, Оригинал
Субтитры: русские (форс. х3, полные х3), украинские (форс., полные), английские

Семпл
General
Unique ID : 285571767744351669499024362443036894601 (0xD6D71F33557FC3A57EB06B8F1A1F2589)
Complete name : Kanojo to kanojo no neko (1999) BDRip 1080p H.265 [3xRUS_3xUKR_JPN] [RIPS-CLUB].mkv
Format : Matroska
Format version : Version 4
File size : 361 MiB
Duration : 4 min 53 s
Overall bit rate : 10.3 Mb/s
Movie name : Она и Её Кот / Вона та її кіт / Kanojo to Kanojo no Neko (1999)
Encoded date : UTC 2022-02-11 18:05:15
Writing application : mkvmerge v65.0.0 ('Too Much') 64-bit
Writing library : libebml v1.4.2 + libmatroska v1.6.4
Cover : Yes
Attachments : Cover.jpg

Video
ID : 1
Format : HEVC
Format/Info : High Efficiency Video Coding
Format profile : Main [email protected]@High
Codec ID : V_MPEGH/ISO/HEVC
Duration : 4 min 45 s
Bit rate : 8 393 kb/s
Width : 1 440 pixels
Height : 1 080 pixels
Display aspect ratio : 4:3
Frame rate mode : Constant
Frame rate : 29.970 (30000/1001) FPS
Color space : YUV
Chroma subsampling : 4:2:0
Bit depth : 10 bits
Bits/(Pixel*Frame) : 0.180
Stream size : 285 MiB (79%)
Title : Она и Её Кот / Вона та її кіт / Kanojo to Kanojo no Neko (1999)
Writing library : x265 3.5+1-ce882936d:[Windows][GCC 10.2.0][64 bit] 10bit
Encoding settings : cpuid=1111039 / frame-threads=3 / numa-pools=12 / wpp / no-pmode / no-pme / no-psnr / no-ssim / log-level=2 / input-csp=1 / input-res=1440x1080 / interlace=0 / total-frames=8544 / level-idc=41 / high-tier=1 / uhd-bd=0 / ref=5 / no-allow-non-conformance / no-repeat-headers / annexb / no-aud / no-hrd / info / hash=0 / no-temporal-layers / open-gop / min-keyint=24 / keyint=240 / gop-lookahead=0 / bframes=16 / b-adapt=2 / b-pyramid / bframe-bias=0 / rc-lookahead=60 / lookahead-slices=4 / scenecut=40 / hist-scenecut=0 / radl=0 / no-splice / no-intra-refresh / ctu=32 / min-cu-size=8 / rect / amp / max-tu-size=32 / tu-inter-depth=4 / tu-intra-depth=4 / limit-tu=1 / rdoq-level=2 / dynamic-rd=0.00 / no-ssim-rd / signhide / no-tskip / nr-intra=0 / nr-inter=0 / no-constrained-intra / no-strong-intra-smoothing / max-merge=5 / limit-refs=2 / limit-modes / me=3 / subme=7 / merange=57 / temporal-mvp / no-frame-dup / no-hme / weightp / weightb / no-analyze-src-pics / deblock=-2:-2 / no-sao / no-sao-non-deblock / rd=6 / selective-sao=0 / no-early-skip / no-rskip / no-fast-intra / no-tskip-fast / no-cu-lossless / no-b-intra / no-splitrd-skip / rdpenalty=0 / psy-rd=2.00 / psy-rdoq=1.00 / no-rd-refine / no-lossless / cbqpoffs=0 / crqpoffs=0 / rc=crf / crf=18.0 / qcomp=0.60 / qpstep=4 / stats-write=0 / stats-read=0 / vbv-maxrate=50000 / vbv-bufsize=50000 / vbv-init=0.9 / min-vbv-fullness=50.0 / max-vbv-fullness=80.0 / crf-max=0.0 / crf-min=0.0 / ipratio=1.40 / pbratio=1.30 / aq-mode=3 / aq-strength=1.00 / no-cutree / zone-count=0 / no-strict-cbr / qg-size=32 / no-rc-grain / qpmax=69 / qpmin=0 / no-const-vbv / sar=1 / overscan=0 / videoformat=5 / range=0 / colorprim=2 / transfer=2 / colormatrix=2 / chromaloc=0 / display-window=0 / cll=0,0 / min-luma=0 / max-luma=1023 / log2-max-poc-lsb=8 / vui-timing-info / vui-hrd-info / slices=1 / no-opt-qp-pps / no-opt-ref-list-length-pps / no-multi-pass-opt-rps / scenecut-bias=0.05 / hist-threshold=0.03 / no-opt-cu-delta-qp / no-aq-motion / no-hdr10 / no-hdr10-opt / no-dhdr10-opt / no-idr-recovery-sei / analysis-reuse-level=0 / analysis-save-reuse-level=0 / analysis-load-reuse-level=0 / scale-factor=0 / refine-intra=0 / refine-inter=0 / refine-mv=1 / refine-ctu-distortion=0 / no-limit-sao / ctu-info=0 / no-lowpass-dct / refine-analysis-type=0 / copy-pic=1 / max-ausize-factor=1.0 / no-dynamic-refine / no-single-sei / no-hevc-aq / no-svt / no-field / qp-adaptation-range=1.00 / scenecut-aware-qp=0conformance-window-offsets / right=0 / bottom=0 / decoder-max-rate=0 / no-vbv-live-multi-pass
Language : Japanese
Default : Yes
Forced : Yes

Audio #1
ID : 2
Format : AC-3
Format/Info : Audio Coding 3
Commercial name : Dolby Digital
Codec ID : A_AC3
Duration : 4 min 53 s
Bit rate mode : Constant
Bit rate : 192 kb/s
Channel(s) : 2 channels
Channel layout : L R
Sampling rate : 44.1 kHz
Frame rate : 28.711 FPS (1536 SPF)
Compression mode : Lossy
Stream size : 6.71 MiB (2%)
Title : AC-3 / 2.0 Ch / 192 kbps / DUB / Никита Танклиевский
Language : Russian
Service kind : Complete Main
Default : Yes
Forced : Yes

Audio #2
ID : 3
Format : AC-3
Format/Info : Audio Coding 3
Commercial name : Dolby Digital
Codec ID : A_AC3
Duration : 4 min 47 s
Bit rate mode : Constant
Bit rate : 192 kb/s
Channel(s) : 2 channels
Channel layout : L R
Sampling rate : 44.1 kHz
Frame rate : 28.711 FPS (1536 SPF)
Compression mode : Lossy
Stream size : 6.59 MiB (2%)
Title : AC-3 / 2.0 Ch / 192 kbps / DVO / Мифоград: Elka, Элинар
Language : Russian
Service kind : Complete Main
Default : No
Forced : No

Audio #3
ID : 4
Format : AC-3
Format/Info : Audio Coding 3
Commercial name : Dolby Digital
Codec ID : A_AC3
Duration : 4 min 50 s
Bit rate mode : Constant
Bit rate : 192 kb/s
Channel(s) : 2 channels
Channel layout : L R
Sampling rate : 48.0 kHz
Frame rate : 31.250 FPS (1536 SPF)
Compression mode : Lossy
Stream size : 6.65 MiB (2%)
Title : AC-3 / 2.0 Ch / 192 kbps / VO / FassaD
Language : Russian
Service kind : Complete Main
Default : No
Forced : No

Audio #4
ID : 5
Format : AC-3
Format/Info : Audio Coding 3
Commercial name : Dolby Digital
Codec ID : A_AC3
Duration : 4 min 44 s
Bit rate mode : Constant
Bit rate : 512 kb/s
Channel(s) : 2 channels
Channel layout : L R
Sampling rate : 48.0 kHz
Frame rate : 31.250 FPS (1536 SPF)
Compression mode : Lossy
Stream size : 17.4 MiB (5%)
Title : AC-3 / 2.0 Ch / 512 kbps / DUB / UA MAX
Language : Ukrainian
Service kind : Complete Main
Default : No
Forced : No

Audio #5
ID : 6
Format : AC-3
Format/Info : Audio Coding 3
Commercial name : Dolby Digital
Codec ID : A_AC3
Duration : 4 min 45 s
Bit rate mode : Constant
Bit rate : 256 kb/s
Channel(s) : 2 channels
Channel layout : L R
Sampling rate : 48.0 kHz
Frame rate : 31.250 FPS (1536 SPF)
Compression mode : Lossy
Stream size : 8.72 MiB (2%)
Title : AC-3 / 2.0 Ch / 256 kbps / DVO / Uks And Kia
Language : Ukrainian
Service kind : Complete Main
Default : No
Forced : No

Audio #6
ID : 7
Format : AC-3
Format/Info : Audio Coding 3
Commercial name : Dolby Digital
Codec ID : A_AC3
Duration : 4 min 43 s
Bit rate mode : Constant
Bit rate : 224 kb/s
Channel(s) : 2 channels
Channel layout : L R
Sampling rate : 48.0 kHz
Frame rate : 31.250 FPS (1536 SPF)
Compression mode : Lossy
Stream size : 7.57 MiB (2%)
Title : AC-3 / 2.0 Ch / 224 kbps / AVO / Жорж & WrongFunction
Language : Ukrainian
Service kind : Complete Main
Default : No
Forced : No

Audio #7
ID : 8
Format : AC-3
Format/Info : Audio Coding 3
Commercial name : Dolby Digital
Codec ID : A_AC3
Duration : 4 min 45 s
Bit rate mode : Constant
Bit rate : 640 kb/s
Channel(s) : 2 channels
Channel layout : L R
Sampling rate : 48.0 kHz
Frame rate : 31.250 FPS (1536 SPF)
Bit depth : 32 bits
Compression mode : Lossy
Stream size : 21.8 MiB (6%)
Title : AC-3 / 2.0 Ch / 640 kbps / Original
Language : Japanese
Service kind : Complete Main
Default : No
Forced : No

Text #1
ID : 9
Format : ASS
Codec ID : S_TEXT/ASS
Codec ID/Info : Advanced Sub Station Alpha
Duration : 4 min 37 s
Bit rate : 104 b/s
Count of elements : 29
Compression mode : Lossless
Stream size : 3.54 KiB (0%)
Title : Forced - Никита Танклиевский
Language : Russian
Default : Yes
Forced : Yes

Text #2
ID : 10
Format : ASS
Codec ID : S_TEXT/ASS
Codec ID/Info : Advanced Sub Station Alpha
Duration : 4 min 43 s
Bit rate : 293 b/s
Count of elements : 111
Compression mode : Lossless
Stream size : 10.2 KiB (0%)
Title : Full - 19th angel
Language : Russian
Default : No
Forced : No

Text #3
ID : 11
Format : ASS
Codec ID : S_TEXT/ASS
Codec ID/Info : Advanced Sub Station Alpha
Duration : 4 min 43 s
Bit rate : 97 b/s
Count of elements : 40
Compression mode : Lossless
Stream size : 3.38 KiB (0%)
Title : Forced - Мифоград: Элинар
Language : Russian
Default : No
Forced : No

Text #4
ID : 12
Format : ASS
Codec ID : S_TEXT/ASS
Codec ID/Info : Advanced Sub Station Alpha
Duration : 4 min 43 s
Bit rate : 276 b/s
Count of elements : 101
Compression mode : Lossless
Stream size : 9.56 KiB (0%)
Title : Full - Мифоград: Элинар
Language : Russian
Default : No
Forced : No

Text #5
ID : 13
Format : ASS
Codec ID : S_TEXT/ASS
Codec ID/Info : Advanced Sub Station Alpha
Duration : 4 min 37 s
Bit rate : 104 b/s
Count of elements : 29
Compression mode : Lossless
Stream size : 3.54 KiB (0%)
Title : Forced - FassaD
Language : Russian
Default : No
Forced : No

Text #6
ID : 14
Format : UTF-8
Codec ID : S_TEXT/UTF8
Codec ID/Info : UTF-8 Plain Text
Duration : 4 min 43 s
Bit rate : 151 b/s
Count of elements : 89
Stream size : 5.27 KiB (0%)
Title : Full - FassaD (RoStudio)
Language : Russian
Default : No
Forced : No

Text #7
ID : 15
Format : UTF-8
Codec ID : S_TEXT/UTF8
Codec ID/Info : UTF-8 Plain Text
Duration : 3 min 30 s
Bit rate : 7 b/s
Count of elements : 7
Stream size : 209 Bytes (0%)
Title : Forced
Language : Ukrainian
Default : No
Forced : No

Text #8
ID : 16
Format : UTF-8
Codec ID : S_TEXT/UTF8
Codec ID/Info : UTF-8 Plain Text
Duration : 4 min 40 s
Bit rate : 125 b/s
Count of elements : 84
Stream size : 4.30 KiB (0%)
Title : Full by Reoko Ruchuku
Language : Ukrainian
Default : No
Forced : No

Text #9
ID : 17
Format : UTF-8
Codec ID : S_TEXT/UTF8
Codec ID/Info : UTF-8 Plain Text
Duration : 4 min 33 s
Bit rate : 93 b/s
Count of elements : 100
Stream size : 3.13 KiB (0%)
Title : Full
Language : English
Default : No
Forced : No
Релиз от: -Star-Lord-

Этот торрент недоступен для скачивания без регистрации, однако доступен по публичной magnet-ссылке (источники с публичных трекеров). Перед использованием ссылки прочтите, пожалуйста Пользовательское соглашение, а также как можно дольше оставайтесь на раздаче! Для того, чтобы скачать сам торрент-файл (который видит больше источников), а также для того, чтобы поблагодарить релизера, вам необходимо зарегистрироваться. Если регистрироваться лень - вы можете также попробовать скачать релиз по нашим партнерским ссылкам ниже. Кроме того, зарегистрированным пользователям не показывается всплывающая реклама при скачивании.

[underver.se].t235684.torrent
Трекер: Зарегистрирован   [ 17.02.2022 06:52 ]  
Статус: T временная (by Robbertta at 17.02.2022 09:28)
Поблагодарили: пока никто не поблагодарил...
Тип торрента: публичный - доступные источники с открытых трекеров: 
Размер: 361 MB (занимает 0.08 DVDR, для записи нужно 1 болванка DVDR/RW)
 
 

Яндекс.Метрика powered by Sphinx


В Н И М А Н И Е
Сайт не распространяет и не хранит электронные версии произведений, а лишь бесплатно и без коммерческой выгоды (не требуя взамен платы,
SMS и т.д.) предоставляет доступ к создаваемому пользователями каталогу ссылок на торрент-файлы, которые содержат только списки хеш-сумм.
Убедительная просьба с жалобами обращаться напрямую к пользователю, разместившему торрент файл.

Вверх