Loading...
Error

ПрожекторПерисХилтон (1-16 выпуски) [2017, Ток-шоу, SATRip]

Статистика раздачи
Размер:  6.72 GB   |    Зарегистрирован:  9 месяцев   |    Скачан:  3 раза

Полного источника не было: 2 месяца 7 дней

Сидов:  0  |  0 KB/s  ]   Личеров:  0  |  0 KB/s  ]

* - сиды/пиры с внешних источников

   
 
Автор Сообщение

Renesans Пол:Муж

25-Дек-2021 07:03

ПрожекторПерисХилтон


Страна: Россия
Производство: Первый канал
Год выпуска: 2017
Жанр: новости, ток-шоу, комедия
Режиссёр: Марина Данилян, Юрий Владовский, Евгений Шелякин
Ведущие: Иван Ургант, Сергей Светлаков, Гарик Мартиросян, Александр Цекало
Продюсер: Александр Цекало

Описание: «Прожектор Пэрис Хилтон» — проект Первого канала, ведущими которого стали Гарик Мартиросян, Иван Ургант, Саша Цекало и Сергей Светлаков. Это программа, где нет ничего обязательного. Ведущие делают практически все, что хотят. Обсуждают темы, которые интересны зрителям, проводят «политинформацию» для населения. На столе в студии разложено много газет — ведь где ещё, как не в свежих газетах, черпать актуальные новости, которые произошли на прошедшей неделе...



Продолжительность: 16х ~00:40:00
Перевод: не требуется (оригинал)
Субтитры: нет
Качество: SATRip
Формат: АVI
Видео кодек: XviD
Аудио кодек: МР3
Видео: 720x400 (16:9), 25.000 fps, XviD ~1 650 kbps avg
Аудио: 48.0 kHz, MPEG Layer 3, 2 ch, ~192 kbps avg

Релиз от: 25Kuzmich
General
Format : AVI
Format/Info : Audio Video Interleave
File size : 513 MiB
Duration : 38mn 42s
Overall bit rate : 1 852 Kbps
Writing application : VirtualDubMod 1.5.10.3 | (build 2550/release)
Writing library : VirtualDubMod build 2550/release

Video
ID : 0
Format : MPEG-4 Visual
Format profile : Advanced [email protected]
Format settings, BVOP : 2
Format settings, QPel : No
Format settings, GMC : No warppoints
Format settings, Matrix : Default (MPEG)
Codec ID : XVID
Codec ID/Hint : XviD
Duration : 38mn 42s
Bit rate : 1 650 Kbps
Width : 720 pixels
Height : 400 pixels
Display aspect ratio : 16:9
Frame rate : 25.000 fps
Color space : YUV
Chroma subsampling : 4:2:0
Bit depth : 8 bits
Scan type : Progressive
Compression mode : Lossy
Bits/(Pixel*Frame) : 0.229
Stream size : 457 MiB (89%)
Writing library : XviD 1.2.1 (UTC 2008-12-04)

Audio
ID : 1
Format : MPEG Audio
Format version : Version 1
Format profile : Layer 3
Mode : Joint stereo
Mode extension : MS Stereo
Codec ID : 55
Codec ID/Hint : MP3
Duration : 38mn 42s
Bit rate mode : Constant
Bit rate : 192 Kbps
Channel(s) : 2 channels
Sampling rate : 48.0 KHz
Compression mode : Lossy
Stream size : 53.2 MiB (10%)
Alignment : Aligned on interleaves
Interleave, duration : 40 ms (1.00 video frame)
Interleave, preload duration : 504 ms
Writing library : LAME3.99r
Encoding settings : -m j -V 4 -q 0 -lowpass 18.6 -b 192

Этот торрент недоступен для скачивания без регистрации, однако доступен по публичной magnet-ссылке (источники с публичных трекеров). Перед использованием ссылки прочтите, пожалуйста Пользовательское соглашение, а также как можно дольше оставайтесь на раздаче! Для того, чтобы скачать сам торрент-файл (который видит больше источников), а также для того, чтобы поблагодарить релизера, вам необходимо зарегистрироваться. Если регистрироваться лень - вы можете также попробовать скачать релиз по нашим партнерским ссылкам ниже. Кроме того, зарегистрированным пользователям не показывается всплывающая реклама при скачивании.

[underver.se].t231247.torrent
Трекер: Зарегистрирован   [ 25.12.2021 07:03 ]  
Статус: проверено (by Robbertta at 26.12.2021 05:59)
Поблагодарили: пока никто не поблагодарил...
Тип торрента: публичный - доступные источники с открытых трекеров: 
Размер: 6.72 GB (занимает 1.54 DVDR, для записи нужно 2 болванки DVDR/RW)
 
 

Яндекс.Метрика powered by Sphinx


В Н И М А Н И Е
Сайт не распространяет и не хранит электронные версии произведений, а лишь бесплатно и без коммерческой выгоды (не требуя взамен платы,
SMS и т.д.) предоставляет доступ к создаваемому пользователями каталогу ссылок на торрент-файлы, которые содержат только списки хеш-сумм.
Убедительная просьба с жалобами обращаться напрямую к пользователю, разместившему торрент файл.

Вверх