Loading...
Error

ПрожекторПерисХилтон. Новый концерт (2021) WEB-DL 1080p

Статистика раздачи
Размер:  3.11 GB   |    Зарегистрирован:  9 месяцев   |    Скачан:  32 раза

Полного источника не было: 2 месяца 4 дня

Сидов:  0  |  0 KB/s  ]   Личеров:  0  |  0 KB/s  ]

* - сиды/пиры с внешних источников

   
 
Автор Сообщение

Renesans Пол:Муж

25-Дек-2021 07:00

ПрожекторПерисХилтон. Новый концерт


Год выпуска: 2021
Жанр: ТВ-шоу, юмор
Ведущий: Гарик Мартиросян, Иван Ургант, Сергей Светлаков

Описание:
Одно из главных комедийных событий года – концерт «Прожектор Перисхилтон», который собрал на одной сцене лучших юмористов России. Гарик Мартиросян, Иван Ургант и Сергей Светлаков рассматривают самые интересные и актуальные события, происходившие в нашей стране и в мире в 2021 году. Они комментируют газетные статьи, делятся мнениями по поводу политики и светской жизни, обсуждают знаменитостей, и всё это – в формате полной импровизации. Кажется, в России не найдётся человека, который бы никогда не слышал о популярной юмористической передаче «Прожекторперисхилтон». Гении импровизаций и мастера сарказма Гарик Мартиросян, Иван Ургант и Сергей Светлаков переносят своё шоу с экранов телевизоров на сцену. Ведущие в режиме реального времени, без монтажа и вырезанных сцен, искрометно шутят на самые злободневные темы. Во время концерта зрителей ждёт множество сюрпризов, а в конце – яркий музыкальный финал.



Страна: Россия
Студия: Лаборатория инновационного и концептуального искусства 08LAB
Продолжительность: ~ 01:11:00
Язык: Русский

Премьера: 25 декабря 2021 года (IVI)
Примечание: Без рекламы

Формат: MKV
Качество: WEB-DL 1080p
Видео: MPEG-4 AVC, ~ 6144 Кбит/с, 1920х800
Аудио: E-AC3, 6 ch, 448 Кбит/с
Субтитры: Отсутствуют
Семпл
Общее
Уникальный идентификатор : 118752684480773543422451409236783469432 (0x5956EF62D4B2AED0391C258570071378)
Полное имя : D:Prozhektorperiskhilton.Novyj.koncert.2021.WEB-DL.1080p.mkv
Формат : Matroska
Версия формата : Version 4
Размер файла : 3,11 Гбайт
Продолжительность : 1 ч. 10 м.
Режим общего битрейта : Постоянный
Общий поток : 6 332 Кбит/сек
Название фильма : Prozhektorperiskhilton.Novyj.koncert.2021.WEB-DL.1080p
Дата кодирования : UTC 2021-12-25 02:33:58
Программа кодирования : mkvmerge v63.0.0 ('Everything') 64-bit
Библиотека кодирования : libebml v1.4.2 + libmatroska v1.6.4
Attachments : poster.jpg

Видео
Идентификатор : 1
Формат : AVC
Формат/Информация : Advanced Video Codec
Профиль формата : [email protected]
Настройки формата : CABAC / 1 Ref Frames
Параметр CABAC формата : Да
Параметр RefFrames формата : 1 кадр
Параметр GOP формата : M=1, N=50
Идентификатор кодека : V_MPEG4/ISO/AVC
Продолжительность : 1 ч. 10 м.
Вид битрейта : Постоянный
Битрейт : 6 144 Кбит/сек
Ширина : 1 920 пикселей
Высота : 800 пикселей
Соотношение сторон : 2,40:1
Режим частоты кадров : Постоянный
Частота кадров : 25,000 кадров/сек
Цветовое пространство : YUV
Субдискретизация насыщенности : 4:2:0
Битовая глубина : 8 бит
Тип развёртки : Прогрессивная
Бит/(Пиксели*Кадры) : 0.160
Размер потока : 3,01 Гбайт (97%)
Default : Да
Forced : Нет

Аудио
Идентификатор : 2
Формат : AC-3
Формат/Информация : Audio Coding 3
Коммерческое название : Dolby Digital
Идентификатор кодека : A_AC3
Продолжительность : 1 ч. 10 м.
Вид битрейта : Постоянный
Битрейт : 192 Кбит/сек
Каналы : 2 канала
Channel layout : L R
Частота : 48,0 КГц
Частота кадров : 31,250 кадров/сек (1536 SPF)
Метод сжатия : С потерями
Размер потока : 96,5 Мбайт (3%)
Service kind : Complete Main
Default : Да
Forced : Нет

Этот торрент недоступен для скачивания без регистрации, однако доступен по публичной magnet-ссылке (источники с публичных трекеров). Перед использованием ссылки прочтите, пожалуйста Пользовательское соглашение, а также как можно дольше оставайтесь на раздаче! Для того, чтобы скачать сам торрент-файл (который видит больше источников), а также для того, чтобы поблагодарить релизера, вам необходимо зарегистрироваться. Если регистрироваться лень - вы можете также попробовать скачать релиз по нашим партнерским ссылкам ниже. Кроме того, зарегистрированным пользователям не показывается всплывающая реклама при скачивании.

[underver.se].t231246.torrent
Трекер: Зарегистрирован   [ 25.12.2021 07:00 ]  
Статус: проверено (by Robbertta at 25.12.2021 10:41)
Поблагодарили: 2 человека
Тип торрента: публичный - доступные источники с открытых трекеров: 
Размер: 3.11 GB (занимает 0.71 DVDR, для записи нужно 1 болванка DVDR/RW)
 
 

cheloweck.dojdya Пол:Муж

25-Дек-2021 11:40

Это что то новенькое,сложно представить это в виде концерта :ROFL:

Яндекс.Метрика powered by Sphinx


В Н И М А Н И Е
Сайт не распространяет и не хранит электронные версии произведений, а лишь бесплатно и без коммерческой выгоды (не требуя взамен платы,
SMS и т.д.) предоставляет доступ к создаваемому пользователями каталогу ссылок на торрент-файлы, которые содержат только списки хеш-сумм.
Убедительная просьба с жалобами обращаться напрямую к пользователю, разместившему торрент файл.

Вверх