Loading...
Error

Новые Танцы [01-07] (Анатолий Шпульников, Константин Лавров) [2021 г., реалити-шоу, танцы, развлекательный, хореография, WEB-DLRip 1080p]

Статистика раздачи
Размер:  19.84 GB   |    Зарегистрирован:  11 месяцев   |    Скачан:  2 раза

Полного источника не было: 8 месяцев

Сидов:  0  |  0 KB/s  ]   Личеров:  0  |  0 KB/s  ]

* - сиды/пиры с внешних источников

   
 
Автор Сообщение

FiNikola Пол:Муж

26-Сен-2021 03:00

Новые Танцы [01-07]


Название: Новые Танцы
Год выхода: 2021
Жанр: Реалити-шоу, танцы, развлекательный, хореография
Режиссер: Анатолий Шпульников, Константин Лавров
Актеры: Мигель
Ведущий: Ляйсан Утяшева, Ульяна Пылаева

Описание:
Новое танцевальное шоу! Лучшие танцовщики страны снова выходят на сцену. Теперь не будет наставников и их команд, а только очные танцевальные поединки между участниками в четырёх категориях: соло, дуэты, дети и команды. Оценивать выступления участников будет Мигель совместно с двумя приглашенными гостями. Компанию неизменной ведущей Ляйсан Утяшевой составит Ульяна Пылаева, которая поддержит участников за кулисами. У участников больше не будет второго шанса, а на кону главный приз — 10 миллионов рублей.


Страна: Россия
Студия: Comedy Club Production, Телеканал ТНТ
Продолжительность: 7 x ~ 01:35:00
Язык: Русский

Премьера: 28 августа 2021 года (ТНТ)
Примечание: Без рекламы

Формат: MKV
Качество: WEB-DLRip 1080p
Видео: MPEG-4 AVC, ~ 4500 Кбит/с, 1920x1072
Звук: AC3, 2 ch, 192 Кбит/с
Субтитры: Отсутствуют
Семпл
Общее
Уникальный идентификатор : 134392503500656134275833391704952856405 (0x651B0DFF768FA843B215BEBBDCA4DF55)
Полное имя : E:Novye.Tantsy.S01.WEB-DL.1080.25KuzmichNovye.Tantsy.S01.E01.WEB-DL.1080.25Kuzmich.mkv
Формат : Matroska
Версия формата : Version 4
Размер файла : 2,93 Гбайт
Продолжительность : 1 ч. 29 м.
Режим общего битрейта : Переменный
Общий поток : 4 692 Кбит/сек
Название фильма : 01.Novye.tancy.2021.WEB-DL.1080p
Дата кодирования : UTC 2021-08-28 20:11:11
Программа кодирования : mkvmerge v60.0.0 ('Are We Copies?') 64-bit
Библиотека кодирования : libebml v1.4.2 + libmatroska v1.6.4
Attachments : poster.jpg

Видео
Идентификатор : 1
Формат : AVC
Формат/Информация : Advanced Video Codec
Профиль формата : [email protected]
Настройки формата : CABAC / 1 Ref Frames
Параметр CABAC формата : Да
Параметр RefFrames формата : 1 кадр
Параметр GOP формата : M=1, N=50
Идентификатор кодека : V_MPEG4/ISO/AVC
Продолжительность : 1 ч. 29 м.
Вид битрейта : Переменный
Битрейт : 4 500 Кбит/сек
Ширина : 1 920 пикселей
Высота : 1 072 пикселя
Соотношение сторон : 16:9
Режим частоты кадров : Постоянный
Частота кадров : 25,000 кадров/сек
Цветовое пространство : YUV
Субдискретизация насыщенности : 4:2:0
Битовая глубина : 8 бит
Тип развёртки : Прогрессивная
Бит/(Пиксели*Кадры) : 0.087
Размер потока : 2,81 Гбайт (96%)
Default : Да
Forced : Нет

Аудио
Идентификатор : 2
Формат : AC-3
Формат/Информация : Audio Coding 3
Коммерческое название : Dolby Digital
Идентификатор кодека : A_AC3
Продолжительность : 1 ч. 29 м.
Вид битрейта : Постоянный
Битрейт : 192 Кбит/сек
Каналы : 2 канала
Channel layout : L R
Частота : 48,0 КГц
Частота кадров : 31,250 кадров/сек (1536 SPF)
Метод сжатия : С потерями
Размер потока : 123 Мбайт (4%)
Service kind : Complete Main
Default : Да
Forced : Нет

Этот торрент недоступен для скачивания без регистрации, однако доступен по публичной magnet-ссылке (источники с публичных трекеров). Перед использованием ссылки прочтите, пожалуйста Пользовательское соглашение, а также как можно дольше оставайтесь на раздаче! Для того, чтобы скачать сам торрент-файл (который видит больше источников), а также для того, чтобы поблагодарить релизера, вам необходимо зарегистрироваться. Если регистрироваться лень - вы можете также попробовать скачать релиз по нашим партнерским ссылкам ниже. Кроме того, зарегистрированным пользователям не показывается всплывающая реклама при скачивании.

[underver.se].t222658.torrent
Трекер: Зарегистрирован   [ 26.09.2021 03:00 ]  
Статус: проверено (by FiNikola at 26.09.2021 03:01)
Поблагодарили: пока никто не поблагодарил...
Тип торрента: публичный - доступные источники с открытых трекеров: 
Размер: 19.84 GB (занимает 4.53 DVDR, для записи нужно 5 болванок DVDR/RW)
 
 

Яндекс.Метрика powered by Sphinx


В Н И М А Н И Е
Сайт не распространяет и не хранит электронные версии произведений, а лишь бесплатно и без коммерческой выгоды (не требуя взамен платы,
SMS и т.д.) предоставляет доступ к создаваемому пользователями каталогу ссылок на торрент-файлы, которые содержат только списки хеш-сумм.
Убедительная просьба с жалобами обращаться напрямую к пользователю, разместившему торрент файл.

Вверх