Loading...
Error

Наркоман Павлик [08x01-05 из 20] (Павел Радонцев) [2021 г., комедия, короткометражный, WEB-DLRip 1080p]

Статистика раздачи
Размер:  2.29 GB   |    Зарегистрирован:  1 год   |    Скачан:  4 раза

Полного источника не было: 10 месяцев

Сидов:  0  |  0 KB/s  ]   Личеров:  0  |  0 KB/s  ]

* - сиды/пиры с внешних источников

   
 
Автор Сообщение

Ermoha Пол:Муж

30-Авг-2021 10:54

Наркоман Павлик [08x01-05 из 20]


Название: Наркоман Павлик
Год выпуска: 2021
Жанр: Комедия, короткометражный
Режиссер-постановщик: Павел Радонцев
В фильме снимались: Павел Радонцев, Денис Гущин, Кирилл Демидов, Антон Батищев, Илья Сорокин, Андрей Савицкий, Регина Вожова, Иван Солдаткин, Ольга Лапушкина, Михаил Мартынов, Хамид Дышниев, Андрей Мирославский, Артём Веретенников, Николай Гусляров

О сериале:
Короткометражный, юмористический сериал о приключениях Павлика, от участников проектов Comedy Club Samara Style, Comedy Club Saint-Petersburg. Сериал стремительно набирает популярность, фразы Павлика всё чаще встречаются на просторах рунета. "Здорова братиш!" - если вы слышали это и не знали откуда, смотрите. Очень угарная и ржачная тема!

Страна: Россия
Студия: Comedoz
Продолжительность: ~00:30:00
Перевод: Не требуется
Субтитры: Нет



Формат: MKV
Качество: WEB-DLRip (1080p)

Видео: VP9, ~ 1979 Кбит/с, 1920x960, 30 кадр/с
Аудио: AC3, 2 ch, 192 Кбит/с

Общее
Уникальный идентификатор : 128157466824297888047786069225422258342 (0x606A3AF4A3370CA58A02F468B58500A6)
Полное имя : PAVLIK.S08E01.2021.WEB-DLRip.1080p.OLEG270877.mkv
Формат : Matroska
Версия формата : Version 4
Размер файла : 564 Мбайт
Продолжительность : 36 м. 16 с.
Общий поток : 2 173 Кбит/сек
Дата кодирования : UTC 2021-08-01 10:12:18
Программа кодирования : mkvmerge v60.0.0 ('Are We Copies?') 64-bit
Библиотека кодирования : libebml v1.4.2 + libmatroska v1.6.4 / Lavf58.29.100

Видео
Идентификатор : 1
Формат : VP9
Идентификатор кодека : V_VP9
Продолжительность : 36 м. 16 с.
Битрейт : 1 979 Кбит/сек
Ширина : 1 920 пикселей
Высота : 960 пикселей
Соотношение сторон : 2,000
Режим частоты кадров : Постоянный
Частота кадров : 30,000 кадров/сек
Цветовое пространство : YUV
Бит/(Пиксели*Кадры) : 0.036
Размер потока : 514 Мбайт (91%)
Default : Да
Forced : Нет
Цветовой диапазон : Limited
Основные цвета : BT.709
Характеристики трансфера : BT.709
Коэффициенты матрицы : BT.709

Аудио
Идентификатор : 2
Формат : AC-3
Формат/Информация : Audio Coding 3
Коммерческое название : Dolby Digital
Идентификатор кодека : A_AC3
Продолжительность : 36 м. 16 с.
Вид битрейта : Постоянный
Битрейт : 192 Кбит/сек
Каналы : 2 канала
Channel layout : L R
Частота : 48,0 КГц
Частота кадров : 31,250 кадров/сек (1536 SPF)
Метод сжатия : С потерями
Размер потока : 49,8 Мбайт (9%)
Default : Да
Forced : Нет

Этот торрент недоступен для скачивания без регистрации, однако доступен по публичной magnet-ссылке (источники с публичных трекеров). Перед использованием ссылки прочтите, пожалуйста Пользовательское соглашение, а также как можно дольше оставайтесь на раздаче! Для того, чтобы скачать сам торрент-файл (который видит больше источников), а также для того, чтобы поблагодарить релизера, вам необходимо зарегистрироваться. Если регистрироваться лень - вы можете также попробовать скачать релиз по нашим партнерским ссылкам ниже. Кроме того, зарегистрированным пользователям не показывается всплывающая реклама при скачивании.

[underver.se].t219452.torrent
Трекер: Зарегистрирован   [ 30.08.2021 10:54 ]  
Статус: T временная (by eXtatik at 30.08.2021 12:02)
Поблагодарили: пока никто не поблагодарил...
Тип торрента: публичный - доступные источники с открытых трекеров: 
Размер: 2.29 GB (занимает 0.52 DVDR, для записи нужно 1 болванка DVDR/RW)
 
 

30-Авг-2021 12:03

Топик был перенесен из форума xUSSR сериалы в форум Другие развлекательные передачи


eXtatik
 

Яндекс.Метрика powered by Sphinx


В Н И М А Н И Е
Сайт не распространяет и не хранит электронные версии произведений, а лишь бесплатно и без коммерческой выгоды (не требуя взамен платы,
SMS и т.д.) предоставляет доступ к создаваемому пользователями каталогу ссылок на торрент-файлы, которые содержат только списки хеш-сумм.
Убедительная просьба с жалобами обращаться напрямую к пользователю, разместившему торрент файл.

Вверх