Loading...
Error

(Rock & Roll) Браво - Легенды Русского Рока (2000) [FLAC (Image+.CUE), Lossless]

Статистика раздачи
Размер:  557 MB   |    Зарегистрирован:  10 лет   |    Скачан:  12 раз
Сидов:  1  |  0 KB/s  ]   Личеров:  1  |  0 KB/s  ]

* - сиды/пиры с внешних источников

   
 
Автор Сообщение

Бишеп Пол:Муж

19-Сен-2012 16:26

Браво - Легенды Русского Рока

Жанр: Rock & Roll
Год выпуска: 2000
Производитель диска: Moroz Records (MR 00379 CD)
Аудиокодек: FLAC
Тип рипа: Image+.CUE
Битрейт аудио: Lossless
Продолжительность: 01:18:26
Треклист:
01 - Открытие
02 - Верю я
03 - Жёлтые ботинки
04 - Кошки
05 - Старый отель
06 - Розы
07 - Чудесная страна
08 - Король оранжевое лето
09 - Добрый вечер, Москва
10 - Джамайка
11 - Чёрный кот
12 - Вася
13 - Стильный оранжевый галстук
14 - Московский бит
15 - Как жаль
16 - Держись, пижон
17 - Ленинградский рок-н-рол
18 - Дорога в облака
19 - Замок из песка
20 - Этот город
21 - Это за окном рассвет
22 - Ветер знает
23 - Жар-птица
24 - Серенада 2000 (Pop Mix)
Exact Audio Copy V1.0 beta 3 from 29. August 2011

Отчёт EAC об извлечении, выполненном 19. сентября 2012, 16:32

Браво / Легенды Русского Рока

Дисковод: HL-DT-STDVDRAM GSA-T10N Adapter: 0 ID: 0

Режим чтения : Достоверность
Использование точного потока : Да
Отключение кэша аудио : Да
Использование указателей C2 : Нет

Коррекция смещения при чтении : 667
Способность читать области Lead-in и Lead-out : Нет
Заполнение пропущенных сэмплов тишиной : Да
Удаление блоков с тишиной в начале и конце : Нет
При вычислениях CRC использовались нулевые сэмплы : Да
Интерфейс : Установленный внешний ASPI-интерфейс

Выходной формат : Пользовательский кодировщик
Выбранный битрейт : 1024 kBit/s
Качество : Высокий
Добавление ID3-тега : Нет
Утилита сжатия : D:\Program Files\Exact Audio Copy\FLAC\FLAC.EXE
Дополнительные параметры : -V -8 -T "Date=%year%" -T "Genre=%genre%" %source%

TOC извлечённого CD

Трек | Старт | Длительность | Начальный сектор | Конечный сектор
---------------------------------------------------------------------
1 | 0:00.00 | 1:54.49 | 0 | 8598
2 | 1:54.49 | 3:06.55 | 8599 | 22603
3 | 5:01.29 | 3:30.17 | 22604 | 38370
4 | 8:31.46 | 2:51.43 | 38371 | 51238
5 | 11:23.14 | 3:59.07 | 51239 | 69170
6 | 15:22.21 | 3:05.57 | 69171 | 83102
7 | 18:28.03 | 2:47.38 | 83103 | 95665
8 | 21:15.41 | 4:38.38 | 95666 | 116553
9 | 25:54.04 | 2:55.08 | 116554 | 129686
10 | 28:49.12 | 1:52.73 | 129687 | 138159
11 | 30:42.10 | 2:58.09 | 138160 | 151518
12 | 33:40.19 | 3:29.09 | 151519 | 167202
13 | 37:09.28 | 3:27.74 | 167203 | 182801
14 | 40:37.27 | 3:31.35 | 182802 | 198661
15 | 44:08.62 | 3:43.50 | 198662 | 215436
16 | 47:52.37 | 2:20.51 | 215437 | 225987
17 | 50:13.13 | 3:44.38 | 225988 | 242825
18 | 53:57.51 | 3:05.40 | 242826 | 256740
19 | 57:03.16 | 3:36.68 | 256741 | 273008
20 | 60:40.09 | 3:09.39 | 273009 | 287222
21 | 63:49.48 | 3:23.27 | 287223 | 302474
22 | 67:13.00 | 3:32.17 | 302475 | 318391
23 | 70:45.17 | 3:46.48 | 318392 | 335389
24 | 74:31.65 | 3:54.29 | 335390 | 352968

Характеристики диапазона извлечения и сообщения об ошибках

Выбранный диапазон

Имя файла D:\Desktop\Браво - Легенды Русского Рока.wav

Пиковый уровень 99.9 %
Скорость извлечения 4.1 X
Качество диапазона 100.0 %
CRC теста 6FC992C2
CRC копии 6FC992C2
Копирование... OK

Ошибок не произошло

AccurateRip: сводка
Трек 1 : извлечено точно (доверие 1) [14546D27] (AR v1)
Трек 2 : извлечено точно (доверие 1) [C2C841D9] (AR v1)
Трек 3 : извлечено точно (доверие 1) [F8F9726B] (AR v1)
Трек 4 : извлечено точно (доверие 1) [3FD6CF5B] (AR v1)
Трек 5 : извлечено точно (доверие 1) [10244223] (AR v1)
Трек 6 : извлечено точно (доверие 1) [C330D8A6] (AR v1)
Трек 7 : извлечено точно (доверие 1) [37853752] (AR v1)
Трек 8 : извлечено точно (доверие 1) [778A0312] (AR v1)
Трек 9 : извлечено точно (доверие 1) [60000243] (AR v1)
Трек 10 : извлечено точно (доверие 1) [0B9C1D83] (AR v1)
Трек 11 : извлечено точно (доверие 1) [E1F0F379] (AR v1)
Трек 12 : извлечено точно (доверие 1) [D31BBFE1] (AR v1)
Трек 13 : извлечено точно (доверие 1) [566CF86E] (AR v1)
Трек 14 : извлечено точно (доверие 1) [1BD1F5A1] (AR v1)
Трек 15 : извлечено точно (доверие 1) [EA7AC304] (AR v1)
Трек 16 : извлечено точно (доверие 1) [9FE9EF34] (AR v1)
Трек 17 : извлечено точно (доверие 1) [A40CB028] (AR v1)
Трек 18 : извлечено точно (доверие 1) [4231C326] (AR v1)
Трек 19 : извлечено точно (доверие 1) [65DBC28C] (AR v1)
Трек 20 : извлечено точно (доверие 1) [95A012FE] (AR v1)
Трек 21 : извлечено точно (доверие 1) [5AF85489] (AR v1)
Трек 22 : извлечено точно (доверие 1) [4CD48696] (AR v1)
Трек 23 : извлечено точно (доверие 1) [94ADAB78] (AR v1)
Трек 24 : извлечено точно (доверие 1) [97D5C14A] (AR v1)
Все треки извлечены точно

Конец отчёта

==== Контрольная сумма отчёта 96B4A346D3EDC8A890A52F68D2D9B6E6D351EB9672ED872A28B9968204394BFA ====

Этот торрент недоступен для скачивания без регистрации, однако доступен по публичной magnet-ссылке (источники с публичных трекеров). Перед использованием ссылки прочтите, пожалуйста Пользовательское соглашение, а также как можно дольше оставайтесь на раздаче! Для того, чтобы скачать сам торрент-файл (который видит больше источников), а также для того, чтобы поблагодарить релизера, вам необходимо зарегистрироваться. Если регистрироваться лень - вы можете также попробовать скачать релиз по нашим партнерским ссылкам ниже. Кроме того, зарегистрированным пользователям не показывается всплывающая реклама при скачивании.

[underverse.su].t19985.torrent
Трекер: Зарегистрирован   [ 19.09.2012 16:26 ]  
Статус: проверено (by ZondeR at 19.09.2012 17:45)
Поблагодарили: 1 человек
Тип торрента: публичный - доступные источники с открытых трекеров: 
Размер: 557 MB (занимает 0.12 DVDR, для записи нужно 1 болванка DVDR/RW)
 
 

Яндекс.Метрика powered by Sphinx


В Н И М А Н И Е
Сайт не распространяет и не хранит электронные версии произведений, а лишь бесплатно и без коммерческой выгоды (не требуя взамен платы,
SMS и т.д.) предоставляет доступ к создаваемому пользователями каталогу ссылок на торрент-файлы, которые содержат только списки хеш-сумм.
Убедительная просьба с жалобами обращаться напрямую к пользователю, разместившему торрент файл.

Вверх