Loading...
Error

(Rock & Roll) Браво & Евгений Осин - Скажем мы друг другу "Браво!" (2021) [FLAC (Tracks+.Cue), Lossless]

Статистика раздачи
Размер:  236 MB   |    Зарегистрирован:  1 год 3 месяца   |    Скачан:  3 раза

Полного источника не было: 2 месяца

Сидов:  0  |  0 KB/s  ]   Личеров:  0  |  0 KB/s  ]

* - сиды/пиры с внешних источников

   
 
Автор Сообщение

Бишеп Пол:Муж

10-Июн-2021 04:57

Браво & Евгений Осин - Скажем мы друг другу "Браво!"

Жанр: Rock & Roll
Год выпуска: 2021
Носитель: CD
Производитель диска: Soyuz Music - SZCD 3052-21
Аудиокодек: FLAC
Тип рипа: Tracks+.CUE
Битрейт аудио: lossless
Продолжительность: 00:30:57


Треклист:
01. На танцплощадке
02. Юрий Гагарин
03. Звездный шейк
04. Мне грустно и легко
05. Сны
06. Просто так
07. Скорый поезд
08. Добрый вечер, Москва!
09. Черный кот
10. Король ''Оранжевое лето"

Exact Audio Copy V1.0 beta 3 from 29. August 2011 

EAC extraction logfile from 8. June 2021, 18:57

Браво / Скажем мы друг другу ''Браво!''

Used drive : ASUS BW-16D1HT Adapter: 1 ID: 0

Read mode : Secure
Utilize accurate stream : Yes
Defeat audio cache : Yes
Make use of C2 pointers : No

Read offset correction : 6
Overread into Lead-In and Lead-Out : No
Fill up missing offset samples with silence : Yes
Delete leading and trailing silent blocks : No
Null samples used in CRC calculations : Yes
Used interface : Native Win32 interface for Win NT & 2000
Gap handling : Appended to previous track

Used output format : User Defined Encoder
Selected bitrate : 128 kBit/s
Quality : High
Add ID3 tag : No
Command line compressor : C:\Program Files (x86)\FLAC\flac.exe
Additional command line options : -V -8 -T "Genre=%genre%" -T "Artist=%artist%" -T "Title=%title%" -T "Album=%albumtitle%" -T "Date=%year%" -T "Tracknumber=%tracknr%" -T "Comment=%comment%" %source%

TOC of the extracted CD

Track | Start | Length | Start sector | End sector
---------------------------------------------------------
1 | 0:00.00 | 1:53.53 | 0 | 8527
2 | 1:53.53 | 2:52.38 | 8528 | 21465
3 | 4:46.16 | 3:06.53 | 21466 | 35468
4 | 7:52.69 | 3:10.66 | 35469 | 49784
5 | 11:03.60 | 3:40.33 | 49785 | 66317
6 | 14:44.18 | 3:19.41 | 66318 | 81283
7 | 18:03.59 | 3:34.53 | 81284 | 97386
8 | 21:38.37 | 2:53.18 | 97387 | 110379
9 | 24:31.55 | 2:49.01 | 110380 | 123055
10 | 27:20.56 | 3:35.61 | 123056 | 139241

Track 1

Filename D:\Браво - Скажем мы друг другу ''Браво!'' (SZCD 3052-21) (2021)\01 - На танцплощадке.wav

Pre-gap length 0:00:02.00

Peak level 91.8 %
Extraction speed 1.8 X
Track quality 100.0 %
Test CRC DC4F053B
Copy CRC DC4F053B
Track not present in AccurateRip database
Copy OK

Track 2

Filename D:\Браво - Скажем мы друг другу ''Браво!'' (SZCD 3052-21) (2021)\02 - Юрий Гагарин.wav

Pre-gap length 0:00:02.00

Peak level 95.2 %
Extraction speed 2.1 X
Track quality 100.0 %
Test CRC A4053DF6
Copy CRC A4053DF6
Track not present in AccurateRip database
Copy OK

Track 3

Filename D:\Браво - Скажем мы друг другу ''Браво!'' (SZCD 3052-21) (2021)\03 - Звездный шейк.wav

Pre-gap length 0:00:02.00

Peak level 96.8 %
Extraction speed 2.2 X
Track quality 100.0 %
Test CRC F6A4ED05
Copy CRC F6A4ED05
Track not present in AccurateRip database
Copy OK

Track 4

Filename D:\Браво - Скажем мы друг другу ''Браво!'' (SZCD 3052-21) (2021)\04 - Мне грустно и легко.wav

Pre-gap length 0:00:02.00

Peak level 88.2 %
Extraction speed 2.1 X
Track quality 99.9 %
Test CRC ED47798E
Copy CRC ED47798E
Track not present in AccurateRip database
Copy OK

Track 5

Filename D:\Браво - Скажем мы друг другу ''Браво!'' (SZCD 3052-21) (2021)\05 - Сны.wav

Pre-gap length 0:00:02.00

Peak level 92.7 %
Extraction speed 2.3 X
Track quality 99.9 %
Test CRC BFC36576
Copy CRC BFC36576
Track not present in AccurateRip database
Copy OK

Track 6

Filename D:\Браво - Скажем мы друг другу ''Браво!'' (SZCD 3052-21) (2021)\06 - Просто так.wav

Pre-gap length 0:00:02.00

Peak level 85.7 %
Extraction speed 2.4 X
Track quality 99.9 %
Test CRC 44497BF9
Copy CRC 44497BF9
Track not present in AccurateRip database
Copy OK

Track 7

Filename D:\Браво - Скажем мы друг другу ''Браво!'' (SZCD 3052-21) (2021)\07 - Скорый поезд.wav

Pre-gap length 0:00:02.00

Peak level 93.4 %
Extraction speed 2.9 X
Track quality 100.0 %
Test CRC 6B49B0E3
Copy CRC 6B49B0E3
Track not present in AccurateRip database
Copy OK

Track 8

Filename D:\Браво - Скажем мы друг другу ''Браво!'' (SZCD 3052-21) (2021)\08 - Добрый вечер, Москва!.wav

Pre-gap length 0:00:02.00

Peak level 90.7 %
Extraction speed 2.9 X
Track quality 100.0 %
Test CRC 604F49FA
Copy CRC 604F49FA
Track not present in AccurateRip database
Copy OK

Track 9

Filename D:\Браво - Скажем мы друг другу ''Браво!'' (SZCD 3052-21) (2021)\09 - Черный кот.wav

Pre-gap length 0:00:02.00

Peak level 90.0 %
Extraction speed 3.0 X
Track quality 100.0 %
Test CRC 26AF3892
Copy CRC 26AF3892
Track not present in AccurateRip database
Copy OK

Track 10

Filename D:\Браво - Скажем мы друг другу ''Браво!'' (SZCD 3052-21) (2021)\10 - Король ''Оранжевое лето''.wav

Pre-gap length 0:00:02.00

Peak level 92.8 %
Extraction speed 2.8 X
Track quality 99.9 %
Test CRC C930308C
Copy CRC C930308C
Track not present in AccurateRip database
Copy OK

None of the tracks are present in the AccurateRip database

No errors occurred

End of status report

==== Log checksum 1AC9F6A1B1131415B6C7D6B6A8DE3DE904DDCB5D5F3A0DA2D4AAA90FC89B1B10 ====
REM GENRE Rock 
REM DATE 2021
REM DISCID 7F07400A
REM COMMENT "ExactAudioCopy v1.0b3"
PERFORMER "Браво"
TITLE "Скажем мы друг другу ''Браво!''"
FILE "01 - На танцплощадке.wav" WAVE
TRACK 01 AUDIO
TITLE "На танцплощадке"
PERFORMER "Браво"
INDEX 01 00:00:00
TRACK 02 AUDIO
TITLE "Юрий Гагарин"
PERFORMER "Браво"
INDEX 00 01:51:53
FILE "02 - Юрий Гагарин.wav" WAVE
INDEX 01 00:00:00
TRACK 03 AUDIO
TITLE "Звездный шейк"
PERFORMER "Браво"
INDEX 00 02:50:38
FILE "03 - Звездный шейк.wav" WAVE
INDEX 01 00:00:00
TRACK 04 AUDIO
TITLE "Мне грустно и легко"
PERFORMER "Браво"
INDEX 00 03:04:53
FILE "04 - Мне грустно и легко.wav" WAVE
INDEX 01 00:00:00
TRACK 05 AUDIO
TITLE "Сны"
PERFORMER "Браво"
INDEX 00 03:08:66
FILE "05 - Сны.wav" WAVE
INDEX 01 00:00:00
TRACK 06 AUDIO
TITLE "Просто так"
PERFORMER "Браво"
INDEX 00 03:38:33
FILE "06 - Просто так.wav" WAVE
INDEX 01 00:00:00
TRACK 07 AUDIO
TITLE "Скорый поезд"
PERFORMER "Браво"
INDEX 00 03:17:41
FILE "07 - Скорый поезд.wav" WAVE
INDEX 01 00:00:00
TRACK 08 AUDIO
TITLE "Добрый вечер, Москва!"
PERFORMER "Браво"
INDEX 00 03:32:53
FILE "08 - Добрый вечер, Москва!.wav" WAVE
INDEX 01 00:00:00
TRACK 09 AUDIO
TITLE "Черный кот"
PERFORMER "Браво"
INDEX 00 02:51:18
FILE "09 - Черный кот.wav" WAVE
INDEX 01 00:00:00
TRACK 10 AUDIO
TITLE "Король ''Оранжевое лето''"
PERFORMER "Браво"
INDEX 00 02:47:01
FILE "10 - Король ''Оранжевое лето''.wav" WAVE
INDEX 01 00:00:00

Этот торрент недоступен для скачивания без регистрации, однако доступен по публичной magnet-ссылке (источники с публичных трекеров). Перед использованием ссылки прочтите, пожалуйста Пользовательское соглашение, а также как можно дольше оставайтесь на раздаче! Для того, чтобы скачать сам торрент-файл (который видит больше источников), а также для того, чтобы поблагодарить релизера, вам необходимо зарегистрироваться. Если регистрироваться лень - вы можете также попробовать скачать релиз по нашим партнерским ссылкам ниже. Кроме того, зарегистрированным пользователям не показывается всплывающая реклама при скачивании.

[underver.se].t210109.torrent
Трекер: Зарегистрирован   [ 10.06.2021 04:57 ]  
Статус: проверено (by Бишеп at 10.06.2021 04:57)
Поблагодарили: пока никто не поблагодарил...
Тип торрента: публичный - доступные источники с открытых трекеров: 
Размер: 236 MB (занимает 0.05 DVDR, для записи нужно 1 болванка DVDR/RW)
 
 

Яндекс.Метрика powered by Sphinx


В Н И М А Н И Е
Сайт не распространяет и не хранит электронные версии произведений, а лишь бесплатно и без коммерческой выгоды (не требуя взамен платы,
SMS и т.д.) предоставляет доступ к создаваемому пользователями каталогу ссылок на торрент-файлы, которые содержат только списки хеш-сумм.
Убедительная просьба с жалобами обращаться напрямую к пользователю, разместившему торрент файл.

Вверх