Loading...
Error

(Rock & Roll) Браво - Дорога в облака (1994) [FLAC (Tracks+.CUE), Lossless]

Статистика раздачи
Размер:  270 MB   |    Зарегистрирован:  7 лет   |    Скачан:  7 раз

Полного источника не было: 1 месяц 3 дня

Сидов:  0  |  0 KB/s  ]   Личеров:  0  |  0 KB/s  ]

* - сиды/пиры с внешних источников

   
 
Автор Сообщение

Бишеп Пол:Муж

16-Авг-2012 18:11

Браво - Дорога в облака

Жанр: Rock & Roll
Год выпуска: 1994
Источник: CD
Производитель диска: General Records - GR 94021 CD
Аудиокодек: FLAC
Тип рипа: Tracks+.CUE
Битрейт аудио: lossless
Продолжительность: 00:42:30


Треклист:
01. Дорога в облака
02. Однaжды
03. Любите, девушки
04. Стpaнa цветов
05. Севеp и юг
06. В пятницу вечеpом
07. Блюз голубой луны
08. Пapень в лиловом сомбpеpо
09. Доктоp Ночь
10. Аэpоплaн
11. Зaмок из пескa
12. Лучший гоpод Земли
13. Кpaснaя стpелa

Код:

Exact Audio Copy V1.0 beta 3 from 29. August 2011

EAC extraction logfile from 16. August 2015, 16:08

Браво / Дорога в облака

Used drive  : TSSTcorpCDDVDW SH-224DB   Adapter: 0  ID: 1

Read mode               : Secure
Utilize accurate stream : Yes
Defeat audio cache      : Yes
Make use of C2 pointers : No

Read offset correction                      : 6
Overread into Lead-In and Lead-Out          : No
Fill up missing offset samples with silence : Yes
Delete leading and trailing silent blocks   : No
Null samples used in CRC calculations       : Yes
Used interface                              : Installed external ASPI interface
Gap handling                                : Appended to previous track

Used output format              : User Defined Encoder
Selected bitrate                : 1024 kBit/s
Quality                         : High
Add ID3 tag                     : No
Command line compressor         : D:\Program Files\Foobar2000\encoders\flac.exe
Additional command line options :  -V -8 -T "Date=%year%" -T "Genre=%genre%" %source%

TOC of the extracted CD

     Track |   Start  |  Length  | Start sector | End sector
    ---------------------------------------------------------
        1  |  0:00.00 |  3:08.65 |         0    |    14164   
        2  |  3:08.65 |  2:53.30 |     14165    |    27169   
        3  |  6:02.20 |  2:49.52 |     27170    |    39896   
        4  |  8:51.72 |  4:09.53 |     39897    |    58624   
        5  | 13:01.50 |  2:37.40 |     58625    |    70439   
        6  | 15:39.15 |  3:18.60 |     70440    |    85349   
        7  | 18:58.00 |  3:40.55 |     85350    |   101904   
        8  | 22:38.55 |  3:20.07 |    101905    |   116911   
        9  | 25:58.62 |  3:29.15 |    116912    |   132601   
       10  | 29:28.02 |  2:53.15 |    132602    |   145591   
       11  | 32:21.17 |  3:39.00 |    145592    |   162016   
       12  | 36:00.17 |  2:58.18 |    162017    |   175384   
       13  | 38:58.35 |  3:31.12 |    175385    |   191221   

Track  1

     Filename D:\Desktop\Браво - Дорога в облака (1994)\01. Дорога в облака.wav

     Pre-gap length  0:00:02.00

     Peak level 83.1 %
     Extraction speed 3.6 X
     Track quality 99.9 %
     Test CRC 00C22371
     Copy CRC 00C22371
     Accurately ripped (confidence 6)  [C3CE6D9B]  (AR v1)
     Copy OK

Track  2

     Filename D:\Desktop\Браво - Дорога в облака (1994)\02. Однaжды.wav

     Pre-gap length  0:00:05.05

     Peak level 83.9 %
     Extraction speed 4.9 X
     Track quality 100.0 %
     Test CRC 8CE998FA
     Copy CRC 8CE998FA
     Accurately ripped (confidence 5)  [2654221A]  (AR v1)
     Copy OK

Track  3

     Filename D:\Desktop\Браво - Дорога в облака (1994)\03. Любите, девушки.wav

     Pre-gap length  0:00:05.28

     Peak level 81.4 %
     Extraction speed 5.1 X
     Track quality 100.0 %
     Test CRC CB1CE1B4
     Copy CRC CB1CE1B4
     Accurately ripped (confidence 5)  [E60270F0]  (AR v1)
     Copy OK

Track  4

     Filename D:\Desktop\Браво - Дорога в облака (1994)\04. Стpaнa цветов.wav

     Pre-gap length  0:00:05.22

     Peak level 82.1 %
     Extraction speed 5.8 X
     Track quality 100.0 %
     Test CRC D53B46A7
     Copy CRC D53B46A7
     Accurately ripped (confidence 5)  [32BC511A]  (AR v1)
     Copy OK

Track  5

     Filename D:\Desktop\Браво - Дорога в облака (1994)\05. Севеp и юг.wav

     Pre-gap length  0:00:04.73

     Peak level 84.5 %
     Extraction speed 5.6 X
     Track quality 100.0 %
     Test CRC 39D77CD4
     Copy CRC 39D77CD4
     Accurately ripped (confidence 6)  [07BE6D3B]  (AR v1)
     Copy OK

Track  6

     Filename D:\Desktop\Браво - Дорога в облака (1994)\06. В пятницу вечеpом.wav

     Pre-gap length  0:00:05.65

     Peak level 82.7 %
     Extraction speed 6.1 X
     Track quality 100.0 %
     Test CRC D98D9588
     Copy CRC D98D9588
     Accurately ripped (confidence 5)  [473719EA]  (AR v1)
     Copy OK

Track  7

     Filename D:\Desktop\Браво - Дорога в облака (1994)\07. Блюз голубой луны.wav

     Pre-gap length  0:00:05.43

     Peak level 84.6 %
     Extraction speed 5.0 X
     Track quality 99.9 %
     Test CRC 72C83D14
     Copy CRC 72C83D14
     Accurately ripped (confidence 5)  [8AED801B]  (AR v1)
     Copy OK

Track  8

     Filename D:\Desktop\Браво - Дорога в облака (1994)\08. Пapень в лиловом сомбpеpо.wav

     Pre-gap length  0:00:03.35

     Peak level 83.5 %
     Extraction speed 6.6 X
     Track quality 100.0 %
     Test CRC 657BEFDD
     Copy CRC 657BEFDD
     Accurately ripped (confidence 5)  [A09BADF8]  (AR v1)
     Copy OK

Track  9

     Filename D:\Desktop\Браво - Дорога в облака (1994)\09. Доктоp Ночь.wav

     Pre-gap length  0:00:03.62

     Peak level 81.4 %
     Extraction speed 6.9 X
     Track quality 100.0 %
     Test CRC 1105BFB0
     Copy CRC 1105BFB0
     Accurately ripped (confidence 5)  [C5B7D5E1]  (AR v1)
     Copy OK

Track 10

     Filename D:\Desktop\Браво - Дорога в облака (1994)\10. Аэpоплaн.wav

     Pre-gap length  0:00:04.02

     Peak level 81.0 %
     Extraction speed 6.8 X
     Track quality 100.0 %
     Test CRC 3FFE9C7B
     Copy CRC 3FFE9C7B
     Accurately ripped (confidence 5)  [FE280570]  (AR v1)
     Copy OK

Track 11

     Filename D:\Desktop\Браво - Дорога в облака (1994)\11. Зaмок из пескa.wav

     Pre-gap length  0:00:04.22

     Peak level 81.2 %
     Extraction speed 7.4 X
     Track quality 100.0 %
     Test CRC 494B4EF5
     Copy CRC 494B4EF5
     Accurately ripped (confidence 5)  [D83B06DA]  (AR v1)
     Copy OK

Track 12

     Filename D:\Desktop\Браво - Дорога в облака (1994)\12. Лучший гоpод Земли.wav

     Pre-gap length  0:00:04.17

     Peak level 87.6 %
     Extraction speed 7.3 X
     Track quality 100.0 %
     Test CRC 1BAAC14A
     Copy CRC 1BAAC14A
     Accurately ripped (confidence 5)  [D2FDEFA4]  (AR v1)
     Copy OK

Track 13

     Filename D:\Desktop\Браво - Дорога в облака (1994)\13. Кpaснaя стpелa.wav

     Pre-gap length  0:00:04.03

     Peak level 84.8 %
     Extraction speed 5.8 X
     Track quality 99.9 %
     Test CRC B396AD39
     Copy CRC B396AD39
     Accurately ripped (confidence 5)  [D02FC03D]  (AR v1)
     Copy OK

All tracks accurately ripped

No errors occurred

End of status report

==== Log checksum 4D7182E01C0C238CB8F1EF40297B230FB08D8C738039C741636A657659CC3E0D ====

Код:

REM GENRE "Beat, Rock & Roll"
REM DATE 1994
REM DISCID 9409F50D
REM COMMENT "ExactAudioCopy v1.0b3"
PERFORMER "Браво"
TITLE "Дорога в облака"
FILE "01. Дорога в облака.wav" WAVE
  TRACK 01 AUDIO
    TITLE "Дорога в облака"
    PERFORMER "Браво"
    INDEX 01 00:00:00
  TRACK 02 AUDIO
    TITLE "Однaжды"
    PERFORMER "Браво"
    INDEX 00 03:03:60
FILE "02. Однaжды.wav" WAVE
    INDEX 01 00:00:00
  TRACK 03 AUDIO
    TITLE "Любите, девушки"
    PERFORMER "Браво"
    INDEX 00 02:48:02
FILE "03. Любите, девушки.wav" WAVE
    INDEX 01 00:00:00
  TRACK 04 AUDIO
    TITLE "Стpaнa цветов"
    PERFORMER "Браво"
    INDEX 00 02:44:30
FILE "04. Стpaнa цветов.wav" WAVE
    INDEX 01 00:00:00
  TRACK 05 AUDIO
    TITLE "Севеp и юг"
    PERFORMER "Браво"
    INDEX 00 04:04:55
FILE "05. Севеp и юг.wav" WAVE
    INDEX 01 00:00:00
  TRACK 06 AUDIO
    TITLE "В пятницу вечеpом"
    PERFORMER "Браво"
    INDEX 00 02:31:50
FILE "06. В пятницу вечеpом.wav" WAVE
    INDEX 01 00:00:00
  TRACK 07 AUDIO
    TITLE "Блюз голубой луны"
    PERFORMER "Браво"
    INDEX 00 03:13:17
FILE "07. Блюз голубой луны.wav" WAVE
    INDEX 01 00:00:00
  TRACK 08 AUDIO
    TITLE "Пapень в лиловом сомбpеpо"
    PERFORMER "Браво"
    INDEX 00 03:37:20
FILE "08. Пapень в лиловом сомбpеpо.wav" WAVE
    INDEX 01 00:00:00
  TRACK 09 AUDIO
    TITLE "Доктоp Ночь"
    PERFORMER "Браво"
    INDEX 00 03:16:20
FILE "09. Доктоp Ночь.wav" WAVE
    INDEX 01 00:00:00
  TRACK 10 AUDIO
    TITLE "Аэpоплaн"
    PERFORMER "Браво"
    INDEX 00 03:25:13
FILE "10. Аэpоплaн.wav" WAVE
    INDEX 01 00:00:00
  TRACK 11 AUDIO
    TITLE "Зaмок из пескa"
    PERFORMER "Браво"
    INDEX 00 02:48:68
FILE "11. Зaмок из пескa.wav" WAVE
    INDEX 01 00:00:00
  TRACK 12 AUDIO
    TITLE "Лучший гоpод Земли"
    PERFORMER "Браво"
    INDEX 00 03:34:58
FILE "12. Лучший гоpод Земли.wav" WAVE
    INDEX 01 00:00:00
  TRACK 13 AUDIO
    TITLE "Кpaснaя стpелa"
    PERFORMER "Браво"
    INDEX 00 02:54:15
FILE "13. Кpaснaя стpелa.wav" WAVE
    INDEX 01 00:00:00

Этот торрент недоступен для скачивания без регистрации, однако доступен по публичной magnet-ссылке (источники с публичных трекеров). Перед использованием ссылки прочтите, пожалуйста Пользовательское соглашение, а также как можно дольше оставайтесь на раздаче! Для того, чтобы скачать сам торрент-файл (который видит больше источников), а также для того, чтобы поблагодарить релизера, вам необходимо зарегистрироваться. Если регистрироваться лень - вы можете также попробовать скачать релиз по нашим партнерским ссылкам ниже. Кроме того, зарегистрированным пользователям не показывается всплывающая реклама при скачивании.

[underverse.su].t57559.torrent
Трекер: Зарегистрирован   [ 27.08.2015 11:53 ]  
Статус: проверено (by Бишеп at 27.08.2015 11:53)
Поблагодарили: 1 человек
Тип торрента: публичный - доступные источники с открытых трекеров: 
Размер: 270 MB (занимает 0.06 DVDR, для записи нужно 1 болванка DVDR/RW)
 
 

Яндекс.Метрика powered by Sphinx


В Н И М А Н И Е
Сайт не распространяет и не хранит электронные версии произведений, а лишь бесплатно и без коммерческой выгоды (не требуя взамен платы,
SMS и т.д.) предоставляет доступ к создаваемому пользователями каталогу ссылок на торрент-файлы, которые содержат только списки хеш-сумм.
Убедительная просьба с жалобами обращаться напрямую к пользователю, разместившему торрент файл.

Вверх