Loading...
Error

(Rock & Roll) Жанна Агузарова и Браво 1983-1988 (1998) [FLAC (Image+.CUE), Lossless]

Статистика раздачи
Размер:  265 MB   |    Зарегистрирован:  5 лет 5 месяцев   |    Скачан:  8 раз
Сидов:  1  |  0 KB/s  ]   Личеров:  0  |  0 KB/s  ]

* - сиды/пиры с внешних источников

   
 
Автор Сообщение

Бишеп Пол:Муж

14-Авг-2012 05:41

Жанна Агузарова и Браво 1983-1988

Жанр: Rock & Roll
Год выпуска: 1998
Источник: CD
Производитель диска: General Records/Moroz Records - dGR 17998 CD/DMR 17998 CD
Аудиокодек: FLAC
Тип рипа: Image+.CUE
Битрейт аудио: lossless
Продолжительность: 00:42:52


Треклист:
01. Открытие
02. Желтые ботинки
03. Медицинский институт
04. Старый отель
05. Звёздный каталог
06. Кошки
07. Синеглазый мальчик
08. Верю я
09. Ленинградский рок-н-ролл
10. Розы
11. Как быть?
12. Молодость
13. Будь со мной
14. В чем дело?

Код:

Exact Audio Copy V1.0 beta 3 from 29. August 2011

EAC extraction logfile from 25. October 2016, 0:06

Жанна Агузарова / Жанна Агузарова и Браво 1983-1988

Used drive  : TSSTcorpCDDVDW SH-224DB   Adapter: 0  ID: 1

Read mode               : Secure
Utilize accurate stream : Yes
Defeat audio cache      : Yes
Make use of C2 pointers : No

Read offset correction                      : 6
Overread into Lead-In and Lead-Out          : No
Fill up missing offset samples with silence : Yes
Delete leading and trailing silent blocks   : No
Null samples used in CRC calculations       : Yes
Used interface                              : Installed external ASPI interface

Used output format              : User Defined Encoder
Selected bitrate                : 1024 kBit/s
Quality                         : High
Add ID3 tag                     : No
Command line compressor         : D:\Program Files\Exact Audio Copy\Flac\flac.exe
Additional command line options : -V -8 -T "Genre=%genre%" -T "Artist=%artist%" -T "Title=%title%" -T "Album=%albumtitle%" -T "Date=%year%" -T "Tracknumber=%tracknr%" -T "Comment=%comment%" %source%

TOC of the extracted CD

     Track |   Start  |  Length  | Start sector | End sector
    ---------------------------------------------------------
        1  |  0:00.00 |  1:52.50 |         0    |     8449   
        2  |  1:52.50 |  3:30.25 |      8450    |    24224   
        3  |  5:23.00 |  2:36.00 |     24225    |    35924   
        4  |  7:59.00 |  3:57.00 |     35925    |    53699   
        5  | 11:56.00 |  4:36.00 |     53700    |    74399   
        6  | 16:32.00 |  2:51.25 |     74400    |    87249   
        7  | 19:23.25 |  2:47.25 |     87250    |    99799   
        8  | 22:10.50 |  3:04.25 |     99800    |   113624   
        9  | 25:15.00 |  2:22.50 |    113625    |   124324   
       10  | 27:37.50 |  3:04.00 |    124325    |   138124   
       11  | 30:41.50 |  3:24.50 |    138125    |   153474   
       12  | 34:06.25 |  2:29.25 |    153475    |   164674   
       13  | 36:35.50 |  2:52.12 |    164675    |   177586   
       14  | 39:27.62 |  3:24.13 |    177587    |   192899   

Range status and errors

Selected range

     Filename D:\Desktop\Жанна Агузарова - Жанна Агузарова и Браво 1983-1988 (1998)\Жанна Агузарова - Жанна Агузарова и Браво 1983-1988.wav

     Peak level 68.5 %
     Extraction speed 2.7 X
     Range quality 99.9 %
     Test CRC 5031EA27
     Copy CRC 5031EA27
     Copy OK

No errors occurred

 
AccurateRip summary
 
Track  1  cannot be verified as accurate (confidence 5)  [62F95F3A], AccurateRip returned [B5A610A2]  (AR v2)
Track  2  cannot be verified as accurate (confidence 5)  [C5C0F6D6], AccurateRip returned [238E7CA2]  (AR v2)
Track  3  cannot be verified as accurate (confidence 5)  [F883AEC6], AccurateRip returned [7B09C194]  (AR v2)
Track  4  cannot be verified as accurate (confidence 5)  [D5E0D44C], AccurateRip returned [71B58AAD]  (AR v2)
Track  5  cannot be verified as accurate (confidence 5)  [2E89A8FE], AccurateRip returned [05FACE8C]  (AR v2)
Track  6  cannot be verified as accurate (confidence 5)  [E798E7F8], AccurateRip returned [DA7FC534]  (AR v2)
Track  7  cannot be verified as accurate (confidence 5)  [241AEAF0], AccurateRip returned [0CD934B0]  (AR v2)
Track  8  cannot be verified as accurate (confidence 5)  [B01859DD], AccurateRip returned [C7D1D834]  (AR v2)
Track  9  cannot be verified as accurate (confidence 5)  [CE8FBF23], AccurateRip returned [38C62F25]  (AR v2)
Track 10  cannot be verified as accurate (confidence 5)  [AB3274E5], AccurateRip returned [101378AD]  (AR v2)
Track 11  cannot be verified as accurate (confidence 5)  [89EC8A8F], AccurateRip returned [1064D587]  (AR v2)
Track 12  cannot be verified as accurate (confidence 5)  [B9874484], AccurateRip returned [5501065A]  (AR v2)
Track 13  cannot be verified as accurate (confidence 5)  [CD7852DF], AccurateRip returned [ADAE8225]  (AR v2)
Track 14  cannot be verified as accurate (confidence 5)  [029F3C68], AccurateRip returned [2D672E9F]  (AR v2)
 
No tracks could be verified as accurate
You may have a different pressing from the one(s) in the database

End of status report

==== Log checksum E9A00702B5FF8FFC9C031DCC266ADAC42054297856670BA39C7C40E0CBA054D7 ====

Код:

REM GENRE "Rock & Roll"
REM DATE 1998
REM DISCID C30A0C0E
REM COMMENT "ExactAudioCopy v1.0b3"
PERFORMER "Жанна Агузарова"
TITLE "Жанна Агузарова и Браво 1983-1988"
FILE "Жанна Агузарова - Жанна Агузарова и Браво 1983-1988.flac" WAVE
  TRACK 01 AUDIO
    TITLE "Открытие"
    PERFORMER "Жанна Агузарова"
    INDEX 01 00:00:00
  TRACK 02 AUDIO
    TITLE "Желтые ботинки"
    PERFORMER "Жанна Агузарова"
    INDEX 00 01:50:00
    INDEX 01 01:52:50
  TRACK 03 AUDIO
    TITLE "Медицинский институт"
    PERFORMER "Жанна Агузарова"
    INDEX 00 05:20:00
    INDEX 01 05:23:00
  TRACK 04 AUDIO
    TITLE "Старый отель"
    PERFORMER "Жанна Агузарова"
    INDEX 00 07:57:00
    INDEX 01 07:59:00
  TRACK 05 AUDIO
    TITLE "Звёздный каталог"
    PERFORMER "Жанна Агузарова"
    INDEX 00 11:55:00
    INDEX 01 11:56:00
  TRACK 06 AUDIO
    TITLE "Кошки"
    PERFORMER "Жанна Агузарова"
    INDEX 00 16:29:00
    INDEX 01 16:32:00
  TRACK 07 AUDIO
    TITLE "Синеглазый мальчик"
    PERFORMER "Жанна Агузарова"
    INDEX 00 19:21:00
    INDEX 01 19:23:25
  TRACK 08 AUDIO
    TITLE "Верю я"
    PERFORMER "Жанна Агузарова"
    INDEX 00 22:07:00
    INDEX 01 22:10:50
  TRACK 09 AUDIO
    TITLE "Ленинградский рок-н-ролл"
    PERFORMER "Жанна Агузарова"
    INDEX 00 25:14:00
    INDEX 01 25:15:00
  TRACK 10 AUDIO
    TITLE "Розы"
    PERFORMER "Жанна Агузарова"
    INDEX 00 27:35:00
    INDEX 01 27:37:50
  TRACK 11 AUDIO
    TITLE "Как быть?"
    PERFORMER "Жанна Агузарова"
    INDEX 00 30:40:50
    INDEX 01 30:41:50
  TRACK 12 AUDIO
    TITLE "Молодость"
    PERFORMER "Жанна Агузарова"
    INDEX 00 34:04:00
    INDEX 01 34:06:25
  TRACK 13 AUDIO
    TITLE "Будь со мной"
    PERFORMER "Жанна Агузарова"
    INDEX 00 36:32:00
    INDEX 01 36:35:50
  TRACK 14 AUDIO
    TITLE "В чем дело?"
    PERFORMER "Жанна Агузарова"
    INDEX 00 39:25:00
    INDEX 01 39:27:62

Этот торрент недоступен для скачивания без регистрации, однако доступен по публичной magnet-ссылке (источники с публичных трекеров). Перед использованием ссылки прочтите, пожалуйста Пользовательское соглашение, а также как можно дольше оставайтесь на раздаче! Для того, чтобы скачать сам торрент-файл (который видит больше источников), а также для того, чтобы поблагодарить релизера, вам необходимо зарегистрироваться. Если регистрироваться лень - вы можете также попробовать скачать релиз по нашим партнерским ссылкам ниже. Кроме того, зарегистрированным пользователям не показывается всплывающая реклама при скачивании.

[underverse.me].t81622.torrent
Трекер: Зарегистрирован   [ 23.04.2017 07:43 ]  
Статус: проверено (by Бишеп at 23.04.2017 07:45)
Поблагодарили: пока никто не поблагодарил...
Тип торрента: публичный - доступные источники с открытых трекеров: 
Размер: 265 MB (занимает 0.06 DVDR, для записи нужно 1 болванка DVDR/RW)
 
 

Яндекс.Метрика powered by Sphinx


В Н И М А Н И Е
Сайт не распространяет и не хранит электронные версии произведений, а лишь бесплатно и без коммерческой выгоды (не требуя взамен платы,
SMS и т.д.) предоставляет доступ к создаваемому пользователями каталогу ссылок на торрент-файлы, которые содержат только списки хеш-сумм.
Убедительная просьба с жалобами обращаться напрямую к пользователю, разместившему торрент файл.

Вверх