Loading...
Error

Коррупционер / The Corruptor (Джеймс Фоули / James Foley) [1999, США, боевик, криминал, детектив, BDRip] AVO (Андрей Гаврилов)

Статистика раздачи
Размер:  1.45 GB   |    Зарегистрирован:  1 год 4 месяца   |    Скачан:  9 раз

Полного источника не было: 13 дней

Сидов:  0  |  0 KB/s  ]   Личеров:  0  |  0 KB/s  ]

* - сиды/пиры с внешних источников

   
 
Автор Сообщение

cheloweck.dojdya Пол:Муж

24-Май-2021 18:22

Коррупционер / The Corruptor


Страна: США
Жанр: боевик, криминал, детектив
Год выпуска: 1999
Продолжительность: 01:50:05

Перевод: Авторский (одноголосый закадровый) Андрей Гаврилов
Субтитры: нет
Режиссер: Джеймс Фоули / James Foley
В ролях: Чоу Юнь-Фат, Марк Уолберг, Рик Янг, Пол Бен-Виктор, Джонкит Ли, Эндрю Пэнг, Элизабет Линдси, Брайан Кокс, Байрон Манн

Описание: Лейтенант Ник Чен – один из наиболее заслуженных полицейских Нью-Йорка. Как китайский иммигрант, Чен использовал связи с Триадой, чтобы продвинуться по служебной лестнице. Теперь он поддерживает порядок в Чайна-тауне. Когда началась война между Тонгами и Фукинскими Драконами Чен получает в напарники новичка-идеалиста Денни Уоллеса, который поначалу не осознает всю власть и влияние своего нового босса...



Качество видео: BDRip
Формат видео: AVI
Видео: XviD 73, 720x304, (2,35:1), 23,976 fps, 1656 Кбит/с, 8 бит, 0.32 bit/pixel
Аудио: Русский (АС3, 2 ch (Front: L R), 48,0 KHz, 224 Kbps)
 
Общее
Полное имя : D:\Фильмы на трекер\Коррупционер (боевик, криминал, детектив 1999 год).avi
Формат : AVI
Формат/Информация : Audio Video Interleave
Размер файла : 1,45 Гбайт
Продолжительность : 1 ч. 50 м.
Общий поток : 1889 Кбит/сек
Программа кодирования : VirtualDubMod 1.5.10.3 | www.virtualdub-fr.org || (build 2550/release)
Библиотека кодирования : VirtualDubMod build 2550/release

Видео
Идентификатор : 0
Формат : MPEG-4 Visual
Профиль формата : Advanced [email protected]
Параметр BVOP формата : 2
Параметр QPel формата : Нет
Параметр GMC формата : Без точки перехода
Параметр матрицы формата : Выборочная
Идентификатор кодека : XVID
Идентификатор кодека/Подсказка : XviD
Продолжительность : 1 ч. 50 м.
Битрейт : 1656 Кбит/сек
Ширина : 720 пикселей
Высота : 304 пикселя
Соотношение сторон : 2,35:1
Частота кадров : 23,976 (23976/1000) кадра/сек
Цветовое пространство : YUV
Субдискретизация насыщенности : 4:2:0
Битовая глубина : 8 бит
Тип развёртки : Прогрессивная
Метод сжатия : С потерями
Бит/(Пиксели*Кадры) : 0.315
Размер потока : 1,27 Гбайт (88%)
Библиотека кодирования : XviD 73

Аудио
Идентификатор : 1
Формат : AC-3
Формат/Информация : Audio Coding 3
Расширение режима : CM (complete main)
Параметр Endianness формата : Big
Идентификатор кодека : 2000
Продолжительность : 1 ч. 50 м.
Вид битрейта : Постоянный
Битрейт : 224 Кбит/сек
Каналы : 2 канала
Расположение каналов : Front: L R
Частота : 48,0 КГц
Частота кадров : 31,250 кадров/сек (1536 spf)
Метод сжатия : С потерями
Размер потока : 177 Мбайт (12%)
Выравнивание : Разделение по промежуткам
Продолжительность промежутка : 42 мс. (1,00 видеокадр)
Время предзагрузки промежутка : 500 мс.



Мои раздачи

Этот торрент недоступен для скачивания без регистрации, однако доступен по публичной magnet-ссылке (источники с публичных трекеров). Перед использованием ссылки прочтите, пожалуйста Пользовательское соглашение, а также как можно дольше оставайтесь на раздаче! Для того, чтобы скачать сам торрент-файл (который видит больше источников), а также для того, чтобы поблагодарить релизера, вам необходимо зарегистрироваться. Если регистрироваться лень - вы можете также попробовать скачать релиз по нашим партнерским ссылкам ниже. Кроме того, зарегистрированным пользователям не показывается всплывающая реклама при скачивании.

[underver.se].t208285.torrent
Трекер: Зарегистрирован   [ 24.05.2021 18:22 ]  
Статус: проверено (by cheloweck.dojdya at 24.05.2021 18:22)
Поблагодарили: пока никто не поблагодарил...
Тип торрента: публичный - доступные источники с открытых трекеров: 
Размер: 1.45 GB (занимает 1/3 DVDR, для записи нужно 1 болванка DVDR/RW)
 
 


Последний раз редактировалось: cheloweck.dojdya (24.05.2021 18:58), всего редактировалось 2 раз(а)

cheloweck.dojdya Пол:Муж

24-Май-2021 18:36

Данный релиз является "редким" - по возможности подключитесь к раздаче :)

Яндекс.Метрика powered by Sphinx


В Н И М А Н И Е
Сайт не распространяет и не хранит электронные версии произведений, а лишь бесплатно и без коммерческой выгоды (не требуя взамен платы,
SMS и т.д.) предоставляет доступ к создаваемому пользователями каталогу ссылок на торрент-файлы, которые содержат только списки хеш-сумм.
Убедительная просьба с жалобами обращаться напрямую к пользователю, разместившему торрент файл.

Вверх