Loading...
Error

Марина Влади. Я несла свою беду (Ирина Голубева) [2013 г., документальный, биография, SatRip]

Статистика раздачи
Размер:  563 MB   |    Зарегистрирован:  8 дней   |    Скачан:  1 раз
Сидов:  1  |  0 KB/s  ]   Личеров:  0  |  0 KB/s  ]

* - сиды/пиры с внешних источников

   
 
Автор Сообщение

ARI71 Пол:Муж

04-Май-2021 12:27

Марина Влади. Я несла свою беду


Год выпуска: 2013
Жанр: документальный, биография
Страна: Россия ТК Останкино
Режиссер: Ирина Голубева
В ролях: Марина Влади, Александр Митта, Игорь Гневашев, Ирина Мирошниченко, Борис Мессерер, Георгий Юнгвальд-Хилькевич, Никита Высоцкий, Евгений Татарский, Андрей Соколов, Пётр Солдатенков, Александр Стефанович, Кирилл Разлогов, Геннадий Полока
Сюжет фильма:
Фильм начинается с истории пожара, который случился в северной столице, в гостинице "Ленинград", в 1991 году. Тогда из огня пожарные чудом спасли актрису Марину Влади. Этот пожар породил огромное количество слухов: Марину Влади преследует злой рок; умирают все, кого она любит. История любви Марины Влади и Владимира Высоцкого закончилась больше двадцати лет назад. Но страсти вокруг последней жены великого барда не утихают до сих пор.
Качество видео: SatRip

Продолжительность: 00:48:03
Формат: AVI
Видео: XviD, 704x400, 1500 kbps
Аудио: русский, (оригинал), MP3 2.0, 128 kbps

Код:

Общее
Полное имя : C:\Marina.Vladi.Ja.nesla.svoju.bedu.SATRip.avi
Формат : AVI
Формат/Информация : Audio Video Interleave
Размер файла : 563 Мбайт
Продолжительность : 48 м. 3 с.
Общий поток : 1637 Кбит/сек
Программа кодирования : VirtualDubMod 1.5.10.3 | www.virtualdub-fr.org || (build 2550/release)
Библиотека кодирования : VirtualDubMod build 2550/release

Видео
Идентификатор : 0
Формат : MPEG-4 Visual
Профиль формата : Advanced Simple@L5
Настройки формата : BVOP2
Параметр BVOP формата : 2
Параметр QPel формата : Нет
Параметр GMC формата : Без точки перехода
Параметр матрицы формата : Default (MPEG)
Идентификатор кодека : XVID
Идентификатор кодека/Подсказка : XviD
Продолжительность : 48 м. 3 с.
Битрейт : 1500 Кбит/сек
Ширина : 704 пикселя
Высота : 400 пикселей
Соотношение сторон : 16:9
Частота кадров : 25,000 кадров/сек
Цветовое пространство : YUV
Субдискретизация насыщенности : 4:2:0
Битовая глубина : 8 бит
Тип развёртки : Прогрессивная
Метод сжатия : С потерями
Бит/(Пиксели*Кадры) : 0.213
Размер потока : 515 Мбайт (92%)
Библиотека кодирования : XviD 63

Аудио
Идентификатор : 1
Формат : MPEG Audio
Версия формата : Version 1
Профиль формата : Layer 3
Настройки формата : Joint stereo / MS Stereo
Идентификатор кодека : 55
Идентификатор кодека/Подсказка : MP3
Продолжительность : 48 м. 3 с.
Вид битрейта : Постоянный
Битрейт : 128 Кбит/сек
Каналы : 2 канала
Частота : 48,0 КГц
Частота кадров : 41,667 кадра/сек (1152 SPF)
Метод сжатия : С потерями
Размер потока : 44,0 Мбайт (8%)
Выравнивание : Соединение по промежуткам
Продолжительность промежутка : 40 мс. (1,00 видеокадр)
Время предзагрузки промежутка : 504 мс.
Библиотека кодирования : LAME3.98r
Настройки программы : -m j -V 4 -q 0 -lowpass 17 -b 128

Этот торрент недоступен для скачивания без регистрации, однако доступен по публичной magnet-ссылке (источники с публичных трекеров). Перед использованием ссылки прочтите, пожалуйста Пользовательское соглашение, а также как можно дольше оставайтесь на раздаче! Для того, чтобы скачать сам торрент-файл (который видит больше источников), а также для того, чтобы поблагодарить релизера, вам необходимо зарегистрироваться. Если регистрироваться лень - вы можете также попробовать скачать релиз по нашим партнерским ссылкам ниже. Кроме того, зарегистрированным пользователям не показывается всплывающая реклама при скачивании.

[underver.se].t206436.torrent
Трекер: Зарегистрирован   [ 04.05.2021 12:27 ]  

Статус: проверено (by ARI71 at 04.05.2021 12:32)
Поблагодарили: пока никто не поблагодарил...
Тип торрента: публичный - доступные источники с открытых трекеров: 
Размер: 563 MB (занимает 0,13 DVDR, для записи нужно 1 болванка DVDR/RW)
 
 
Похожие темы
Форум Тема Автор Торрент Отв. Посл. сооб.
Энциклопедии и словари Марина Власова - Энциклопедия русских суеверий [2008 г., энциклопедия, FB2] RUS Паукан
1 | 0

0 | 1029

39

12.01.2015 15:36


Яндекс.Метрика powered by Sphinx


В Н И М А Н И Е
Сайт не распространяет и не хранит электронные версии произведений, а лишь бесплатно и без коммерческой выгоды (не требуя взамен платы,
SMS и т.д.) предоставляет доступ к создаваемому пользователями каталогу ссылок на торрент-файлы, которые содержат только списки хеш-сумм.
Убедительная просьба с жалобами обращаться напрямую к пользователю, разместившему торрент файл.

Вверх