Loading...
Error

Изображая Купидона / Игра в Купидона / Playing Cupid (Дэвид Уивер) [2021 г., Мелодрама, комедия, WEB-DLRip 720p] MVO (Синема УС) + Original + Sub (Eng, Ukr)

Статистика раздачи
Размер:  2,6 GB   |    Зарегистрирован:  8 дней   |    Скачан:  3 раза
Сидов:  1  |  0 KB/s  ]   Личеров:  0  |  0 KB/s  ]

* - сиды/пиры с внешних источников

   
 
Автор Сообщение

tiptop Пол:Муж

04-Май-2021 11:48

Изображая Купидона / Игра в Купидона / Playing Cupid


Информация о фильме
Название: Изображая Купидона / Игра в Купидона
Оригинальное название: Playing Cupid
Год выхода: 2021
Жанр: Мелодрама, комедия
Режиссер: Дэвид Уивер

В ролях: Лора Вандервурт, Николас Гонсалес, Миа Кваранта де ла Роса, ЛаТоня Уильямс, Ария ДеМарис, Ава Фрика, Нолан Хапп, Джордж Дабурас, Эверик Голдинг

О фильме: Одинокая учительница средней школы Остина встречается с разведенным отцом своей ученицы после того, как его дочь - одна из её учениц, выбирает в качестве школьного проекта необычный бизнес.



Выпущено: США, Канада / Hallmark Channel, Timeless Pictures, Basset Hound Distribution
Продолжительность: 01:24:08
Перевод: Любительский (многоголосый закадровый) [Синема УС]

Файл
Качество: WEB-DLRip 720p
Формат: MKV
Видео: MPEG-4 AVC/H.264, 3720 Кбит/сек, 1280x720
Аудио #1: Русский: AC3, 2 ch, 256 Кбит/сек
Аудио #2: Английский: AC3, 6 ch, 448 Кбит/сек
Субтитры: английские, украинские [вшитые отключаемые]

Код:

 Общее
Уникальный идентификатор                 : 198901567571924928098747004585985211929 (0x95A30C6A508E4998A3F0D6B3FD847E19)
Полное имя                               : F:\ФИЛЬМЫ\01. ФИЛЬМЫ\Изображая Купидона  Playing Cupid (2021)\Izobrazhaya Kupidona  Playing Cupid (2021) WEB-DLRip 720p.mkv
Формат                                   : Matroska
Версия формата                           : Version 4
Размер файла                             : 2,60 Гбайт
Продолжительность                        : 1 ч. 24 м.
Общий поток                              : 4 427 Кбит/сек
Дата кодирования                         : UTC 2021-05-04 09:11:39
Программа кодирования                    : mkvmerge v56.1.0 ('My Friend') 64-bit
Библиотека кодирования                   : libebml v1.4.2 + libmatroska v1.6.4

Видео
Идентификатор                            : 1
Формат                                   : AVC
Формат/Информация                        : Advanced Video Codec
Профиль формата                          : High@L3.1
Настройки формата                        : CABAC / 5 Ref Frames
Параметр CABAC формата                   : Да
Параметр RefFrames формата               : 5 кадров
Идентификатор кодека                     : V_MPEG4/ISO/AVC
Продолжительность                        : 1 ч. 24 м.
Битрейт                                  : 3 720 Кбит/сек
Ширина                                   : 1 280 пикселей
Высота                                   : 720 пикселей
Соотношение сторон                       : 16:9
Режим частоты кадров                     : Постоянный
Частота кадров                           : 25,000 кадров/сек
Цветовое пространство                    : YUV
Субдискретизация насыщенности            : 4:2:0
Битовая глубина                          : 8 бит
Тип развёртки                            : Прогрессивная
Бит/(Пиксели*Кадры)                      : 0.161
Размер потока                            : 2,19 Гбайт (84%)
Заголовок                                : USA, Canada (Hallmark Channel, Timeless Pictures, Basset Hound Distribution)
Язык                                     : English
Default                                  : Да
Forced                                   : Нет

Аудио #1
Идентификатор                            : 2
Формат                                   : AC-3
Формат/Информация                        : Audio Coding 3
Коммерческое название                    : Dolby Digital
Идентификатор кодека                     : A_AC3
Продолжительность                        : 1 ч. 24 м.
Вид битрейта                             : Постоянный
Битрейт                                  : 256 Кбит/сек
Каналы                                   : 2 канала
Channel layout                           : L R
Частота                                  : 48,0 КГц
Частота кадров                           : 31,250 кадров/сек (1536 SPF)
Битовая глубина                          : 16 бит
Метод сжатия                             : С потерями
Задержка видео                           : -5 мс.
Размер потока                            : 154 Мбайт (6%)
Язык                                     : Russian
Service kind                             : Complete Main
Default                                  : Да
Forced                                   : Нет

Аудио #2
Идентификатор                            : 3
Формат                                   : AC-3
Формат/Информация                        : Audio Coding 3
Коммерческое название                    : Dolby Digital
Идентификатор кодека                     : A_AC3
Продолжительность                        : 1 ч. 24 м.
Вид битрейта                             : Постоянный
Битрейт                                  : 448 Кбит/сек
Каналы                                   : 6 каналов
Channel layout                           : L R C LFE Ls Rs
Частота                                  : 48,0 КГц
Частота кадров                           : 31,250 кадров/сек (1536 SPF)
Метод сжатия                             : С потерями
Задержка видео                           : -5 мс.
Размер потока                            : 270 Мбайт (10%)
Заголовок                                : Original (English)
Язык                                     : English
Service kind                             : Complete Main
Default                                  : Нет
Forced                                   : Нет

Текст #1
Идентификатор                            : 4
Формат                                   : UTF-8
Идентификатор кодека                     : S_TEXT/UTF8
Идентификатор кодека/Информация          : UTF-8 Plain Text
Продолжительность                        : 1 ч. 23 м.
Битрейт                                  : 89 бит/сек
Count of elements                        : 1783
Размер потока                            : 55,0 Кбайт (0%)
Язык                                     : English
Default                                  : Да
Forced                                   : Нет

Текст #2
Идентификатор                            : 5
Формат                                   : UTF-8
Идентификатор кодека                     : S_TEXT/UTF8
Идентификатор кодека/Информация          : UTF-8 Plain Text
Продолжительность                        : 1 ч. 23 м.
Битрейт                                  : 157 бит/сек
Count of elements                        : 1783
Размер потока                            : 96,7 Кбайт (0%)
Язык                                     : Ukrainian
Default                                  : Нет
Forced                                   : Нет
 

Этот торрент недоступен для скачивания без регистрации, однако доступен по публичной magnet-ссылке (источники с публичных трекеров). Перед использованием ссылки прочтите, пожалуйста Пользовательское соглашение, а также как можно дольше оставайтесь на раздаче! Для того, чтобы скачать сам торрент-файл (который видит больше источников), а также для того, чтобы поблагодарить релизера, вам необходимо зарегистрироваться. Если регистрироваться лень - вы можете также попробовать скачать релиз по нашим партнерским ссылкам ниже. Кроме того, зарегистрированным пользователям не показывается всплывающая реклама при скачивании.

[underver.se].t206434.torrent
Трекер: Зарегистрирован   [ 04.05.2021 11:48 ]  

Статус: T временная (by tiptop at 04.05.2021 11:51)
Поблагодарили: пока никто не поблагодарил...
Тип торрента: публичный - доступные источники с открытых трекеров: 
Размер: 2,6 GB (занимает 0,59 DVDR, для записи нужно 1 болванка DVDR/RW)
 
 

Яндекс.Метрика powered by Sphinx


В Н И М А Н И Е
Сайт не распространяет и не хранит электронные версии произведений, а лишь бесплатно и без коммерческой выгоды (не требуя взамен платы,
SMS и т.д.) предоставляет доступ к создаваемому пользователями каталогу ссылок на торрент-файлы, которые содержат только списки хеш-сумм.
Убедительная просьба с жалобами обращаться напрямую к пользователю, разместившему торрент файл.

Вверх