Loading...
Error

(Kraut Rock) Apocalypse – Apocalypse (West Germany) (2003) [FLAC (Image+.cue), lossless]

Статистика раздачи
Размер:  283 MB   |    Зарегистрирован:  8 дней   |    Скачан:  1 раз

Полного источника не было: 4 часа

Сидов:  0  |  0 KB/s  ]   Личеров:  0  |  0 KB/s  ]

* - сиды/пиры с внешних источников

   
 
Автор Сообщение

Rsa2 Пол:Муж

04-Май-2021 11:15

Apocalypse – Apocalypse (West Germany)

Жанр: Kraut Rock
Год выпуска: 2003
Производитель: Germany Long Hair – LHC 00024
Аудиокодек: FLAC
Тип рипа: Image+.cue
Битрейт: lossless
Продолжительность: 00:48:49

Треклист:

01 Life Is Your Profession
02 Let It Die
03 Patricia
04 Milkman
05 Try To Please Me
06 Pictures Of My Woman
07 Linda Jones
08 Blowing In Blow

Bonus Track
09 Reflections Of A Summer
Exact Audio Copy V1.5 from 20. February 2020 

EAC extraction logfile from 4. May 2021, 16:10

Apocalypse / Apocalypse

Used drive : HL-DT-STBD-RE BH16NS60 Adapter: 1 ID: 0

Read mode : Secure
Utilize accurate stream : Yes
Defeat audio cache : Yes
Make use of C2 pointers : No

Read offset correction : 6
Overread into Lead-In and Lead-Out : No
Fill up missing offset samples with silence : Yes
Delete leading and trailing silent blocks : No
Null samples used in CRC calculations : Yes
Used interface : Native Win32 interface for Win NT & 2000

Used output format : User Defined Encoder
Selected bitrate : 896 kBit/s
Quality : High
Add ID3 tag : No
Command line compressor : C:\Program Files (x86)\Exact Audio Copy\FLAC\FLAC.EXE
Additional command line options : -6 -V -T "ARTIST=%artist%" -T "TITLE=%title%" -T "ALBUM=%albumtitle%" -T "DATE=%year%" -T "TRACKNUMBER=%tracknr%" -T "GENRE=%genre%" -T "COMMENT=%comment%" -T "BAND=%albuminterpret%" -T "ALBUMARTIST=%albuminterpret%" -T "COMPOSER=%composer%" %haslyrics%--tag-from-file=LYRICS="%lyricsfile%"%haslyrics% -T "DISCNUMBER=%cdnumber%" -T "TOTALDISCS=%totalcds%" -T "TOTALTRACKS=%numtracks%" %hascover%--picture="%coverfile%"%hascover% %source% -o %dest%

TOC of the extracted CD

Track | Start | Length | Start sector | End sector
---------------------------------------------------------
1 | 0:00.00 | 5:51.34 | 0 | 26358
2 | 5:51.34 | 6:12.25 | 26359 | 54283
3 | 12:03.59 | 9:29.06 | 54284 | 96964
4 | 21:32.65 | 4:53.55 | 96965 | 118994
5 | 26:26.45 | 2:55.33 | 118995 | 132152
6 | 29:22.03 | 3:46.13 | 132153 | 149115
7 | 33:08.16 | 3:42.61 | 149116 | 165826
8 | 36:51.02 | 7:21.09 | 165827 | 198910
9 | 44:12.11 | 4:37.13 | 198911 | 219698

Range status and errors

Selected range

Filename D:\Cinema\Apocalypse – Apocalypse (West Germany)\Apocalypse - Apocalypse.wav

Peak level 98.3 %
Extraction speed 4.1 X
Range quality 100.0 %
Test CRC 29430002
Copy CRC 29430002
Copy OK

No errors occurred

AccurateRip summary
Track 1 not present in database
Track 2 not present in database
Track 3 not present in database
Track 4 not present in database
Track 5 not present in database
Track 6 not present in database
Track 7 not present in database
Track 8 not present in database
Track 9 not present in database
None of the tracks are present in the AccurateRip database

End of status report

---- CUETools DB Plugin V2.1.6

[CTDB TOCID: qjQPBwDQ7dpvrXhToFow6_b..Xw-] found
Submit result: qjQPBwDQ7dpvrXhToFow6_b..Xw- has been confirmed
Track | CTDB Status
1 | (6/6) Accurately ripped
2 | (6/6) Accurately ripped
3 | (6/6) Accurately ripped
4 | (6/6) Accurately ripped
5 | (6/6) Accurately ripped
6 | (6/6) Accurately ripped
7 | (6/6) Accurately ripped
8 | (6/6) Accurately ripped
9 | (6/6) Accurately ripped

==== Log checksum A17550A8AA06BFB5E2DC3170EB3E3DD0668C4D31CB323C24F59E411AB214E0EA ====
REM GENRE Kraut 
REM DATE 2003
REM DISCID 7F0B7109
REM COMMENT "ExactAudioCopy v1.5"
PERFORMER "Apocalypse"
TITLE "Apocalypse"
REM COMPOSER ""
FILE "Apocalypse - Apocalypse.flac" WAVE
TRACK 01 AUDIO
TITLE "Life Is Your Profession"
PERFORMER "Apocalypse"
REM COMPOSER ""
INDEX 01 00:00:00
TRACK 02 AUDIO
TITLE "Let It Die"
PERFORMER "Apocalypse"
REM COMPOSER ""
INDEX 00 05:48:51
INDEX 01 05:51:34
TRACK 03 AUDIO
TITLE "Patricia"
PERFORMER "Apocalypse"
REM COMPOSER ""
INDEX 00 12:01:01
INDEX 01 12:03:59
TRACK 04 AUDIO
TITLE "Milkman"
PERFORMER "Apocalypse"
REM COMPOSER ""
INDEX 00 21:30:07
INDEX 01 21:32:65
TRACK 05 AUDIO
TITLE "Try to Please Me"
PERFORMER "Apocalypse"
REM COMPOSER ""
INDEX 00 26:23:62
INDEX 01 26:26:45
TRACK 06 AUDIO
TITLE "Pictures of My Woman"
PERFORMER "Apocalypse"
REM COMPOSER ""
INDEX 00 29:19:20
INDEX 01 29:22:03
TRACK 07 AUDIO
TITLE "Linda Jones"
PERFORMER "Apocalypse"
REM COMPOSER ""
INDEX 00 33:05:33
INDEX 01 33:08:16
TRACK 08 AUDIO
TITLE "Blowing in Blow"
PERFORMER "Apocalypse"
REM COMPOSER ""
INDEX 00 36:48:19
INDEX 01 36:51:02
TRACK 09 AUDIO
TITLE "Reflections of a Summer"
PERFORMER "Apocalypse"
REM COMPOSER ""
INDEX 00 44:08:69
INDEX 01 44:12:11

Этот торрент недоступен для скачивания без регистрации, однако доступен по публичной magnet-ссылке (источники с публичных трекеров). Перед использованием ссылки прочтите, пожалуйста Пользовательское соглашение, а также как можно дольше оставайтесь на раздаче! Для того, чтобы скачать сам торрент-файл (который видит больше источников), а также для того, чтобы поблагодарить релизера, вам необходимо зарегистрироваться. Если регистрироваться лень - вы можете также попробовать скачать релиз по нашим партнерским ссылкам ниже. Кроме того, зарегистрированным пользователям не показывается всплывающая реклама при скачивании.

[underver.se].t206433.torrent
Трекер: Зарегистрирован   [ 04.05.2021 11:15 ]  

Статус: проверено (by Бишеп at 07.05.2021 03:12)
Поблагодарили: пока никто не поблагодарил...
Тип торрента: публичный - доступные источники с открытых трекеров: 
Размер: 283 MB (занимает 0,06 DVDR, для записи нужно 1 болванка DVDR/RW)
 
 

Яндекс.Метрика powered by Sphinx


В Н И М А Н И Е
Сайт не распространяет и не хранит электронные версии произведений, а лишь бесплатно и без коммерческой выгоды (не требуя взамен платы,
SMS и т.д.) предоставляет доступ к создаваемому пользователями каталогу ссылок на торрент-файлы, которые содержат только списки хеш-сумм.
Убедительная просьба с жалобами обращаться напрямую к пользователю, разместившему торрент файл.

Вверх