Loading...
Error

(Rock & Roll) Браво - Браво 1984-1985 (2020) [FLAC (Tracks+.Cue), Lossless]

Статистика раздачи
Размер:  528 MB   |    Зарегистрирован:  1 год 5 месяцев   |    Скачан:  4 раза

Полного источника не было: 10 месяцев

Сидов:  0  |  0 KB/s  ]   Личеров:  0  |  0 KB/s  ]

* - сиды/пиры с внешних источников

   
 
Автор Сообщение

Бишеп Пол:Муж

13-Апр-2021 04:10

Браво - Браво 1984-1985

Жанр: Rock & Roll
Год выпуска: 2020
Носитель: CD
Производитель диска: Soyuz Music - SZCD 0454-20
Аудиокодек: FLAC
Тип рипа: Tracks+.CUE
Битрейт аудио: lossless
Продолжительность: 00:41:55


Треклист:
01. Кошки (3:03)
02. Желтые ботинки (3:35)
03. Верю я (3:03)
04. Медицинский институт (2:38)
05. Звездный каталог (5:20)
06. Як (2:25)
07. Открытие (1:52)
08. Чудесная страна (2:51)
09. Ленинградский Рок-н-Ролл (2:33)
10. Марсианка (3:33)
11. Пиранья (5:15)
12. Синеглазый мальчик (2:48)
13. Черный кот (2:54)

Exact Audio Copy V1.0 beta 3 from 29. August 2011 

EAC extraction logfile from 29. March 2021, 14:00

Браво / Браво 1984-1985

Used drive : ASUS BW-16D1HT Adapter: 1 ID: 0

Read mode : Secure
Utilize accurate stream : Yes
Defeat audio cache : Yes
Make use of C2 pointers : No

Read offset correction : 6
Overread into Lead-In and Lead-Out : No
Fill up missing offset samples with silence : Yes
Delete leading and trailing silent blocks : No
Null samples used in CRC calculations : Yes
Used interface : Native Win32 interface for Win NT & 2000
Gap handling : Appended to previous track

Used output format : User Defined Encoder
Selected bitrate : 128 kBit/s
Quality : High
Add ID3 tag : No
Command line compressor : C:\Program Files (x86)\FLAC\flac.exe
Additional command line options : -V -8 -T "Genre=%genre%" -T "Artist=%artist%" -T "Title=%title%" -T "Album=%albumtitle%" -T "Date=%year%" -T "Tracknumber=%tracknr%" -T "Comment=%comment%" %source%

TOC of the extracted CD

Track | Start | Length | Start sector | End sector
---------------------------------------------------------
1 | 0:00.00 | 3:03.01 | 0 | 13725
2 | 3:03.01 | 3:35.42 | 13726 | 29892
3 | 6:38.43 | 3:03.63 | 29893 | 43680
4 | 9:42.31 | 2:38.23 | 43681 | 55553
5 | 12:20.54 | 5:20.36 | 55554 | 79589
6 | 17:41.15 | 2:25.04 | 79590 | 90468
7 | 20:06.19 | 1:52.73 | 90469 | 98941
8 | 21:59.17 | 2:51.28 | 98942 | 111794
9 | 24:50.45 | 2:33.00 | 111795 | 123269
10 | 27:23.45 | 3:33.14 | 123270 | 139258
11 | 30:56.59 | 5:15.12 | 139259 | 162895
12 | 36:11.71 | 2:48.62 | 162896 | 175557
13 | 39:00.58 | 2:54.50 | 175558 | 188657

Track 1

Filename D:\Браво - Браво 1984-1985 (SZCD 0454-20) (2020)\01 - Кошки.wav

Pre-gap length 0:00:02.00

Peak level 98.1 %
Extraction speed 4.4 X
Track quality 100.0 %
Test CRC C1963871
Copy CRC C1963871
Track not present in AccurateRip database
Copy OK

Track 2

Filename D:\Браво - Браво 1984-1985 (SZCD 0454-20) (2020)\02 - Желтые ботинки.wav

Peak level 99.4 %
Extraction speed 4.9 X
Track quality 100.0 %
Test CRC 468A8F2F
Copy CRC 468A8F2F
Track not present in AccurateRip database
Copy OK

Track 3

Filename D:\Браво - Браво 1984-1985 (SZCD 0454-20) (2020)\03 - Верю я.wav

Peak level 99.2 %
Extraction speed 5.2 X
Track quality 100.0 %
Test CRC DD807AFC
Copy CRC DD807AFC
Track not present in AccurateRip database
Copy OK

Track 4

Filename D:\Браво - Браво 1984-1985 (SZCD 0454-20) (2020)\04 - Медицинский институт.wav

Peak level 100.0 %
Extraction speed 5.3 X
Track quality 100.0 %
Test CRC 5B90CF54
Copy CRC 5B90CF54
Track not present in AccurateRip database
Copy OK

Track 5

Filename D:\Браво - Браво 1984-1985 (SZCD 0454-20) (2020)\05 - Звездный каталог.wav

Peak level 99.3 %
Extraction speed 6.3 X
Track quality 100.0 %
Test CRC 3B4CDB80
Copy CRC 3B4CDB80
Track not present in AccurateRip database
Copy OK

Track 6

Filename D:\Браво - Браво 1984-1985 (SZCD 0454-20) (2020)\06 - Як.wav

Peak level 94.3 %
Extraction speed 5.0 X
Track quality 99.9 %
Test CRC E3BFF9B4
Copy CRC E3BFF9B4
Track not present in AccurateRip database
Copy OK

Track 7

Filename D:\Браво - Браво 1984-1985 (SZCD 0454-20) (2020)\07 - Открытие.wav

Peak level 99.7 %
Extraction speed 5.8 X
Track quality 100.0 %
Test CRC E8F53490
Copy CRC E8F53490
Track not present in AccurateRip database
Copy OK

Track 8

Filename D:\Браво - Браво 1984-1985 (SZCD 0454-20) (2020)\08 - Чудесная страна.wav

Peak level 99.3 %
Extraction speed 6.5 X
Track quality 100.0 %
Test CRC 297C056A
Copy CRC 297C056A
Track not present in AccurateRip database
Copy OK

Track 9

Filename D:\Браво - Браво 1984-1985 (SZCD 0454-20) (2020)\09 - Ленинградский Рок-н-Ролл.wav

Peak level 99.2 %
Extraction speed 6.7 X
Track quality 100.0 %
Test CRC 037E2745
Copy CRC 037E2745
Track not present in AccurateRip database
Copy OK

Track 10

Filename D:\Браво - Браво 1984-1985 (SZCD 0454-20) (2020)\10 - Марсианка.wav

Peak level 99.3 %
Extraction speed 7.1 X
Track quality 100.0 %
Test CRC 055F825B
Copy CRC 055F825B
Track not present in AccurateRip database
Copy OK

Track 11

Filename D:\Браво - Браво 1984-1985 (SZCD 0454-20) (2020)\11 - Пиранья.wav

Peak level 99.3 %
Extraction speed 7.8 X
Track quality 100.0 %
Test CRC 849600F3
Copy CRC 849600F3
Track not present in AccurateRip database
Copy OK

Track 12

Filename D:\Браво - Браво 1984-1985 (SZCD 0454-20) (2020)\12 - Синеглазый мальчик.wav

Peak level 100.0 %
Extraction speed 7.4 X
Track quality 100.0 %
Test CRC 216328A6
Copy CRC 216328A6
Track not present in AccurateRip database
Copy OK

Track 13

Filename D:\Браво - Браво 1984-1985 (SZCD 0454-20) (2020)\13 - Черный кот.wav

Peak level 98.9 %
Extraction speed 7.5 X
Track quality 100.0 %
Test CRC 71C13BEC
Copy CRC 71C13BEC
Track not present in AccurateRip database
Copy OK

None of the tracks are present in the AccurateRip database

No errors occurred

End of status report

==== Log checksum 284FEFCCD4B64FE0B812F6375D181A0BECFA0C99765BEFBBD29A70A56594BB5B ====
REM GENRE Rock 
REM DATE 2020
REM DISCID 9C09D30D
REM COMMENT "ExactAudioCopy v1.0b3"
PERFORMER "Браво"
TITLE "Браво 1984-1985"
FILE "01 - Кошки.wav" WAVE
TRACK 01 AUDIO
TITLE "Кошки"
PERFORMER "Браво"
INDEX 01 00:00:00
FILE "02 - Желтые ботинки.wav" WAVE
TRACK 02 AUDIO
TITLE "Желтые ботинки"
PERFORMER "Браво"
INDEX 01 00:00:00
FILE "03 - Верю я.wav" WAVE
TRACK 03 AUDIO
TITLE "Верю я"
PERFORMER "Браво"
INDEX 01 00:00:00
FILE "04 - Медицинский институт.wav" WAVE
TRACK 04 AUDIO
TITLE "Медицинский институт"
PERFORMER "Браво"
INDEX 01 00:00:00
FILE "05 - Звездный каталог.wav" WAVE
TRACK 05 AUDIO
TITLE "Звездный каталог"
PERFORMER "Браво"
INDEX 01 00:00:00
FILE "06 - Як.wav" WAVE
TRACK 06 AUDIO
TITLE "Як"
PERFORMER "Браво"
INDEX 01 00:00:00
FILE "07 - Открытие.wav" WAVE
TRACK 07 AUDIO
TITLE "Открытие"
PERFORMER "Браво"
INDEX 01 00:00:00
FILE "08 - Чудесная страна.wav" WAVE
TRACK 08 AUDIO
TITLE "Чудесная страна"
PERFORMER "Браво"
INDEX 01 00:00:00
FILE "09 - Ленинградский Рок-н-Ролл.wav" WAVE
TRACK 09 AUDIO
TITLE "Ленинградский Рок-н-Ролл"
PERFORMER "Браво"
INDEX 01 00:00:00
FILE "10 - Марсианка.wav" WAVE
TRACK 10 AUDIO
TITLE "Марсианка"
PERFORMER "Браво"
INDEX 01 00:00:00
FILE "11 - Пиранья.wav" WAVE
TRACK 11 AUDIO
TITLE "Пиранья"
PERFORMER "Браво"
INDEX 01 00:00:00
FILE "12 - Синеглазый мальчик.wav" WAVE
TRACK 12 AUDIO
TITLE "Синеглазый мальчик"
PERFORMER "Браво"
INDEX 01 00:00:00
FILE "13 - Черный кот.wav" WAVE
TRACK 13 AUDIO
TITLE "Черный кот"
PERFORMER "Браво"
INDEX 01 00:00:00

Этот торрент недоступен для скачивания без регистрации, однако доступен по публичной magnet-ссылке (источники с публичных трекеров). Перед использованием ссылки прочтите, пожалуйста Пользовательское соглашение, а также как можно дольше оставайтесь на раздаче! Для того, чтобы скачать сам торрент-файл (который видит больше источников), а также для того, чтобы поблагодарить релизера, вам необходимо зарегистрироваться. Если регистрироваться лень - вы можете также попробовать скачать релиз по нашим партнерским ссылкам ниже. Кроме того, зарегистрированным пользователям не показывается всплывающая реклама при скачивании.

[underver.se].t204422.torrent
Трекер: Зарегистрирован   [ 13.04.2021 04:10 ]  
Статус: проверено (by Бишеп at 13.04.2021 04:10)
Поблагодарили: пока никто не поблагодарил...
Тип торрента: публичный - доступные источники с открытых трекеров: 
Размер: 528 MB (занимает 0.12 DVDR, для записи нужно 1 болванка DVDR/RW)
 
 

Яндекс.Метрика powered by Sphinx


В Н И М А Н И Е
Сайт не распространяет и не хранит электронные версии произведений, а лишь бесплатно и без коммерческой выгоды (не требуя взамен платы,
SMS и т.д.) предоставляет доступ к создаваемому пользователями каталогу ссылок на торрент-файлы, которые содержат только списки хеш-сумм.
Убедительная просьба с жалобами обращаться напрямую к пользователю, разместившему торрент файл.

Вверх