Loading...
Error

Неизвестная планета Земля / One Strange Rock (1 сезон: 1-10 серии из 10) / (Даррен Аронофски) [2018, документальный, DVB] MVO + Sub (rus)

Статистика раздачи
Размер:  9.04 GB   |    Зарегистрирован:  1 год 5 месяцев   |    Скачан:  11 раз

Полного источника не было: 18 дней

Сидов:  0  |  0 KB/s  ]   Личеров:  0  |  0 KB/s  ]

* - сиды/пиры с внешних источников

   
 
Автор Сообщение

ARI71 Пол:Муж

12-Апр-2021 17:09

Неизвестная планета Земля / One Strange Rock


Год выпуска: 2018
Страна: США, National Geographic, Nutopia
Жанр: документальный
Продолжительность: 10 x ~ 00:44:59
Перевод: профессиональный (многоголосый закадровый)
Русские субтитры: есть, softsub (SRT)
Режиссер: Даррен Аронофски

Описание: Мы живем на планете Земля и даже не подозреваем о том, какие загадки и секреты она хранит. В этом интереснейшем проекте мы постараемся понять, что именно изучают современные ученые, какие готовятся исследования в скором времени, и почему человечество, пуская в космос исследовательские зонды, не может себе позволить спуститься на дно Марианской впадины? Авторы этого проекта пытаются раскрыть особенности современной науки, опираясь на историю и знания о перспективах на будущее. Если вы поклонник научного жанра в исследовательских и документальных проектах, то эта программа для вас!

качество: DVB

формат: MKV
Видео: [email protected] (16:9) AVC (H.264) [email protected], ~ 2677 kbps, 25fps
Аудио: Русский 48 kHz, AC3 Dolby Digital, 2/0 (L,R) ch, ~192.00 kbps avg
01. Глоток воздуха / Gasp
Мы воспринимаем Землю как должное. Мы многого не ценим. Есть один процесс, который происходит так естественно, что мы даже не задумываемся об этом. Дыхание. Но если бы вы знали половину того, что должно произойти, чтобы образовался кислород, которым мы дышим, у вас бы дух перехватило. Каждый наш вдох, 16 вдохов в минуту, 23 тысячи вдохов в день, каждый вдох и каждый выдох драгоценного кислорода не был бы возможен без земли, воды, ветра и огня.
02. Буря / Storm
Наш мир родился из насилия, из бури, которая свирепствовала с начала времен. Бури такой силы, что она могла уничтожать планеты. Один мощный взрыв может изменить все. Это происходило раньше и это может произойти снова. Большинство из нас пребывает в блаженном неведении относительно хаоса, царящего вокруг. Но восемь астронавтов, которые провели в космосе больше тысячи дней, могут рассказать нам, как пребывание там наверху помогло им глубже понять, что происходит здесь внизу.
03. Щит / Shield
Солнце дает нам тепло и свет. Оно – источник жизни. Без энергии Солнца не растет, не цветет и не живет ничего живое. Но солнце существует не только для нашего блага. Это не просто большой забавный шарик, который улыбается нам с небес и желает хорошего дня. Солнце – не наш друг. Солнце – это монстр. Убийца планет. Отсюда, с Земли, мы не видим эту сторону Солнца. Но восемь астронавтов, налетавших в космосе больше тысячи дней, могут рассказать, как пребывание на орбите помогло им понять, какую угрозу таит Солнце.
04. Возникновение жизни / Genesis
Возможно, мы никогда не узнаем, как зародилась жизнь, но мы точно можем предположить, что вначале это был довольно странный коктейль. Немного волшебной жидкости. Капля звездной пыли, искра энергии. Все это встретилось и перемешалось, как в большом кипящем котле, и наша планета ожила.Только некоторые из нас имеют возможность увидеть, насколько необыкновенна жизнь на планете. Восемь астронавтов, каждый из которых провел на орбите больше тысячи дней, могут рассказать, как пребывание в космосе помогло им понять, что же на самом деле происходит у нас, на Земле.
05. Выживание / Survival
Каждую осень с деревьев опадают мертвые листья. Это неизбежно. И отдельные клетки, и звезды – всё, в конце концов, умирает. Таков порядок вещей. Но наша неизвестная планета тоже может таить в себе смерть. Находясь на орбите, когда смотришь вниз, ты думаешь: какой же он красивый, этот голубой шар там вдалеке. Мы привыкли думать, что Земля – это наша поддержка, но она здесь не для того, чтобы нам помогать, совсем не для этого. Когда вы смотрите на нее сверху, вы видите, что это место жестоко, прекрасно, безумно, динамично.
06. Побег / Escape
Если бы человечество знало, что на Землю летит огромный астероид или готовится извержение, от которого мы все задохнемся, то что бы мы предприняли? Вымирание или побег на другую планету? И возможно ли нам выжить не на Земле?
07. Терраформирование / Terraform
Конечно, нам повезло с нашей планетой. Голубое небо, зеленые холмы, вода повсюду. Это действительно красивое место. Однако наш дом не возник в готовом виде. Земля была недвижимостью, нуждавшейся в ремонте, и надо было немало потрудиться, чтобы построить этот рай. Почти четыре миллиарда лет строительных работ. Где-то попроще, где-то помасштабней, чтобы сделать это здание настоящим домом. И когда вы парите над планетой, вы понимаете, что именно жизнь держит в руках молоток.
08. Внеземные цивилизации / Alien
Каждый день ученые находят новую систему планет, которые очень похожи на нашу Землю. Шансы на то, что жизнь существует еще где-то, а не только на Земле, очень высоки. Сегодня мы живем на планете, которую населяют более восьми миллионов разных видов. Но причин для их возникновения было так мало, что поневоле задумаешься: могло ли это случиться где-нибудь еще?
09. Пробуждение / Awakening
Из космоса можно увидеть более масштабную картину, ты видишь, как человеческая цивилизация распространилась по земле. Насколько нам известно, где-то во Вселенной не существует никого похожего на нас. Я могу понять и оценить, как сложно создана наша планета только потому, что в моей голове находится удивительно сложный человеческий мозг. Мы – единственный вид на этой планете, который может конструировать в своем мозгу реальность. И потом строить ее.
10. Дом / Home
Большинство из нас каждый день уходит из дома. Мы уходим на работу, не задумываясь. Но только представьте, что с вашего рабочего места видна вся планета, поездка на работу станет чуть более серьезным испытанием. Где ваш дом? Там, где вы родились? Где выросли? Или там где вы сейчас? Где-то, где вы когда-то жили. Откуда приехали? Где сформировались как личность? Если вы хотите это узнать, вы должны покинуть эти места.
: Complete name               : F:\Наладки\SD-фильмы\Неизвестная планета Земля\01. Глоток воздуха_.mkv 
Format : Matroska
Format version : Version 4 / Version 2
File size : 942 MiB
Duration : 44 min 59 s
Overall bit rate : 2 927 kb/s
Encoded date : UTC 2019-06-11 16:25:30
Writing application : mkvmerge v6.6.0 ('The Edge Of The In Between') built on Dec 1 2013 17:55:00
Writing library : libebml v1.3.0 + libmatroska v1.4.1

Video
ID : 1
Format : AVC
Format/Info : Advanced Video Codec
Format profile : [email protected]
Format settings : CABAC / 4 Ref Frames
Format settings, CABAC : Yes
Format settings, ReFrames : 4 frames
Format settings, GOP : M=4, N=28
Codec ID : V_MPEG4/ISO/AVC
Bit rate : 2 677 kb/s
Width : 720 pixels
Height : 576 pixels
Display aspect ratio : 16:9
Frame rate mode : Variable
Original frame rate : 25.000 FPS
Standard : Component
Color space : YUV
Chroma subsampling : 4:2:0
Bit depth : 8 bits
Scan type : Interlaced
Scan type, store method : Separated fields
Scan order : Top Field First
Default : Yes
Forced : No
Color range : Limited
Color primaries : BT.601 PAL
Transfer characteristics : BT.470 System B, BT.470 System G
Matrix coefficients : BT.470 System B, BT.470 System G

Audio
ID : 2
Format : AC-3
Format/Info : Audio Coding 3
Codec ID : A_AC3
Duration : 44 min 59 s
Bit rate mode : Constant
Bit rate : 192 kb/s
Channel(s) : 2 channels
Channel positions : Front: L R
Sampling rate : 48.0 kHz
Frame rate : 31.250 FPS (1536 SPF)
Bit depth : 16 bits
Compression mode : Lossy
Stream size : 61.8 MiB (7%)
Title : СВ-Дубль
Language : Russian
Service kind : Complete Main
Default : Yes
Forced : Yes

Text
ID : 3
Format : UTF-8
Codec ID : S_TEXT/UTF8
Codec ID/Info : UTF-8 Plain Text
Title : СВ-Дубль
Language : Russian
Default : No
Forced : No

Complete name : F:\Наладки\SD-фильмы\Неизвестная планета Земля\02. Буря_.mkv
Format : Matroska
Format version : Version 4 / Version 2
File size : 906 MiB
Duration : 44 min 59 s
Overall bit rate : 2 815 kb/s
Encoded date : UTC 2019-06-11 16:27:26
Writing application : mkvmerge v6.6.0 ('The Edge Of The In Between') built on Dec 1 2013 17:55:00
Writing library : libebml v1.3.0 + libmatroska v1.4.1

Video
ID : 1
Format : AVC
Format/Info : Advanced Video Codec
Format profile : [email protected]
Format settings : CABAC / 4 Ref Frames
Format settings, CABAC : Yes
Format settings, ReFrames : 4 frames
Codec ID : V_MPEG4/ISO/AVC
Bit rate : 2 567 kb/s
Width : 720 pixels
Height : 576 pixels
Display aspect ratio : 16:9
Frame rate mode : Variable
Original frame rate : 25.000 FPS
Standard : Component
Color space : YUV
Chroma subsampling : 4:2:0
Bit depth : 8 bits
Scan type : Interlaced
Scan type, store method : Separated fields
Scan order : Top Field First
Default : Yes
Forced : No
Color range : Limited
Color primaries : BT.601 PAL
Transfer characteristics : BT.470 System B, BT.470 System G
Matrix coefficients : BT.470 System B, BT.470 System G

Audio
ID : 2
Format : AC-3
Format/Info : Audio Coding 3
Codec ID : A_AC3
Duration : 44 min 59 s
Bit rate mode : Constant
Bit rate : 192 kb/s
Channel(s) : 2 channels
Channel positions : Front: L R
Sampling rate : 48.0 kHz
Frame rate : 31.250 FPS (1536 SPF)
Bit depth : 16 bits
Compression mode : Lossy
Stream size : 61.8 MiB (7%)
Title : СВ-Дубль
Language : Russian
Service kind : Complete Main
Default : Yes
Forced : Yes

Text
ID : 3
Format : UTF-8
Codec ID : S_TEXT/UTF8
Codec ID/Info : UTF-8 Plain Text
Title : СВ-Дубль
Language : Russian
Default : No
Forced : No

Complete name : F:\Наладки\SD-фильмы\Неизвестная планета Земля\03. Щит_.mkv
Format : Matroska
Format version : Version 4 / Version 2
File size : 846 MiB
Duration : 44 min 57 s
Overall bit rate : 2 631 kb/s
Encoded date : UTC 2019-06-11 16:29:04
Writing application : mkvmerge v6.6.0 ('The Edge Of The In Between') built on Dec 1 2013 17:55:00
Writing library : libebml v1.3.0 + libmatroska v1.4.1

Video
ID : 1
Format : AVC
Format/Info : Advanced Video Codec
Format profile : [email protected]
Format settings : CABAC / 4 Ref Frames
Format settings, CABAC : Yes
Format settings, ReFrames : 4 frames
Format settings, GOP : M=4, N=28
Codec ID : V_MPEG4/ISO/AVC
Bit rate : 2 386 kb/s
Width : 720 pixels
Height : 576 pixels
Display aspect ratio : 16:9
Frame rate mode : Variable
Original frame rate : 25.000 FPS
Standard : Component
Color space : YUV
Chroma subsampling : 4:2:0
Bit depth : 8 bits
Scan type : Interlaced
Scan type, store method : Separated fields
Scan order : Top Field First
Default : Yes
Forced : No
Color range : Limited
Color primaries : BT.601 PAL
Transfer characteristics : BT.470 System B, BT.470 System G
Matrix coefficients : BT.470 System B, BT.470 System G

Audio
ID : 2
Format : AC-3
Format/Info : Audio Coding 3
Codec ID : A_AC3
Duration : 44 min 57 s
Bit rate mode : Constant
Bit rate : 192 kb/s
Channel(s) : 2 channels
Channel positions : Front: L R
Sampling rate : 48.0 kHz
Frame rate : 31.250 FPS (1536 SPF)
Bit depth : 16 bits
Compression mode : Lossy
Stream size : 61.8 MiB (7%)
Title : СВ-Дубль
Language : Russian
Service kind : Complete Main
Default : Yes
Forced : Yes

Text
ID : 3
Format : UTF-8
Codec ID : S_TEXT/UTF8
Codec ID/Info : UTF-8 Plain Text
Title : СВ-Дубль
Language : Russian
Default : No
Forced : No

Complete name : F:\Наладки\SD-фильмы\Неизвестная планета Земля\04. Возникновение жизни_.mkv
Format : Matroska
Format version : Version 4 / Version 2
File size : 884 MiB
Duration : 44 min 59 s
Overall bit rate : 2 747 kb/s
Encoded date : UTC 2019-06-11 16:30:43
Writing application : mkvmerge v6.6.0 ('The Edge Of The In Between') built on Dec 1 2013 17:55:00
Writing library : libebml v1.3.0 + libmatroska v1.4.1

Video
ID : 1
Format : AVC
Format/Info : Advanced Video Codec
Format profile : [email protected]
Format settings : CABAC / 4 Ref Frames
Format settings, CABAC : Yes
Format settings, ReFrames : 4 frames
Codec ID : V_MPEG4/ISO/AVC
Bit rate : 2 500 kb/s
Width : 720 pixels
Height : 576 pixels
Display aspect ratio : 16:9
Frame rate mode : Variable
Original frame rate : 25.000 FPS
Standard : Component
Color space : YUV
Chroma subsampling : 4:2:0
Bit depth : 8 bits
Scan type : Interlaced
Scan type, store method : Separated fields
Scan order : Top Field First
Default : Yes
Forced : No
Color range : Limited
Color primaries : BT.601 PAL
Transfer characteristics : BT.470 System B, BT.470 System G
Matrix coefficients : BT.470 System B, BT.470 System G

Audio
ID : 2
Format : AC-3
Format/Info : Audio Coding 3
Codec ID : A_AC3
Duration : 44 min 59 s
Bit rate mode : Constant
Bit rate : 192 kb/s
Channel(s) : 2 channels
Channel positions : Front: L R
Sampling rate : 48.0 kHz
Frame rate : 31.250 FPS (1536 SPF)
Bit depth : 16 bits
Compression mode : Lossy
Stream size : 61.8 MiB (7%)
Title : СВ-Дубль
Language : Russian
Service kind : Complete Main
Default : Yes
Forced : Yes

Text
ID : 3
Format : UTF-8
Codec ID : S_TEXT/UTF8
Codec ID/Info : UTF-8 Plain Text
Title : СВ-Дубль
Language : Russian
Default : No
Forced : No

Complete name : F:\Наладки\SD-фильмы\Неизвестная планета Земля\05. Выживание_.mkv
Format : Matroska
Format version : Version 4 / Version 2
File size : 990 MiB
Duration : 44 min 59 s
Overall bit rate : 3 076 kb/s
Encoded date : UTC 2019-06-11 16:32:37
Writing application : mkvmerge v6.6.0 ('The Edge Of The In Between') built on Dec 1 2013 17:55:00
Writing library : libebml v1.3.0 + libmatroska v1.4.1

Video
ID : 1
Format : AVC
Format/Info : Advanced Video Codec
Format profile : [email protected]
Format settings : CABAC / 4 Ref Frames
Format settings, CABAC : Yes
Format settings, ReFrames : 4 frames
Codec ID : V_MPEG4/ISO/AVC
Bit rate : 2 822 kb/s
Width : 720 pixels
Height : 576 pixels
Display aspect ratio : 16:9
Frame rate mode : Variable
Original frame rate : 25.000 FPS
Standard : Component
Color space : YUV
Chroma subsampling : 4:2:0
Bit depth : 8 bits
Scan type : Interlaced
Scan type, store method : Separated fields
Scan order : Top Field First
Default : Yes
Forced : No
Color range : Limited
Color primaries : BT.601 PAL
Transfer characteristics : BT.470 System B, BT.470 System G
Matrix coefficients : BT.470 System B, BT.470 System G

Audio
ID : 2
Format : AC-3
Format/Info : Audio Coding 3
Codec ID : A_AC3
Duration : 44 min 59 s
Bit rate mode : Constant
Bit rate : 192 kb/s
Channel(s) : 2 channels
Channel positions : Front: L R
Sampling rate : 48.0 kHz
Frame rate : 31.250 FPS (1536 SPF)
Bit depth : 16 bits
Compression mode : Lossy
Stream size : 61.8 MiB (6%)
Title : СВ-Дубль
Language : Russian
Service kind : Complete Main
Default : Yes
Forced : Yes

Text
ID : 3
Format : UTF-8
Codec ID : S_TEXT/UTF8
Codec ID/Info : UTF-8 Plain Text
Title : СВ-Дубль
Language : Russian
Default : No
Forced : No

Этот торрент недоступен для скачивания без регистрации, однако доступен по публичной magnet-ссылке (источники с публичных трекеров). Перед использованием ссылки прочтите, пожалуйста Пользовательское соглашение, а также как можно дольше оставайтесь на раздаче! Для того, чтобы скачать сам торрент-файл (который видит больше источников), а также для того, чтобы поблагодарить релизера, вам необходимо зарегистрироваться. Если регистрироваться лень - вы можете также попробовать скачать релиз по нашим партнерским ссылкам ниже. Кроме того, зарегистрированным пользователям не показывается всплывающая реклама при скачивании.

[underver.se].t204398.torrent
Трекер: Зарегистрирован   [ 12.04.2021 17:09 ]  
Статус: проверено (by ARI71 at 12.04.2021 17:14)
Поблагодарили: 1 человек
Тип торрента: публичный - доступные источники с открытых трекеров: 
Размер: 9.04 GB (занимает 2.07 DVDR, для записи нужно 3 болванки DVDR/RW)
 
 

Яндекс.Метрика powered by Sphinx


В Н И М А Н И Е
Сайт не распространяет и не хранит электронные версии произведений, а лишь бесплатно и без коммерческой выгоды (не требуя взамен платы,
SMS и т.д.) предоставляет доступ к создаваемому пользователями каталогу ссылок на торрент-файлы, которые содержат только списки хеш-сумм.
Убедительная просьба с жалобами обращаться напрямую к пользователю, разместившему торрент файл.

Вверх