Loading...
Error

Хоаниб - секреты пустынных слонов / Secrets of The Desert Elephants (Томас Беренд, Рози Кох) [2013 г., Документальный, природа, фауна, HDTV 1080i] Dub + Original

Статистика раздачи
Размер:  3.06 GB   |    Зарегистрирован:  1 год 6 месяцев   |    Скачан:  4 раза

Полного источника не было: 2 месяца 7 дней

Сидов:  0  |  0 KB/s  ]   Личеров:  0  |  0 KB/s  ]

* - сиды/пиры с внешних источников

   
 
Автор Сообщение

Evgenii82 Пол:Муж

11-Мар-2021 07:41

Хоаниб - секреты пустынных слонов / Secrets of The Desert Elephants


Год выпуска: 2013
Жанр: Документальный, природа, фауна
Страна: Германия, Blue Planet Film
Режиссер: Томас Беренд, Рози Кох
Сюжет фильма:
Это древнейшая в мире пустыня и одна из самых неприветливых - Намиб. Однако ее нельзя назвать безжизненной, природное многообразие этих мест поразительно. Пустыня Намиб крайне засушливое место несмотря на непосредственную близость к морю и протянулась почти на 2000 км вдоль побережья. Она уникальна тем, что здесь обитают слоны. Как же они выживают в таких суровых условиях? На севере пустыню пересекают долины нескольких сезонных рек, одна из них - долина реки Хаониб. Ее русло, протянувшееся на несколько сотен км через пустыню, выходит к морю. Оно наполняется водою лишь раз, самое большее - два раза в год... Только в долине могут жить растения и млекопитающие, это родина пустынных слонов.
Качество видео: HDTV 1080i
Продолжительность: 00:43:59
Формат: MKV
Видео: MPEG-4 AVC, 1920x1080, ~ 9088 Кбит/с
Аудио #1: русский, дублированный, MP2, 192 kbps, стерео
Аудио #2: английский, оригинал, MP2, 192 kbps, стерео

Код:

General
ID                             : 1 (0x1)
Complete name                  : G:\Хоаниб - секреты пустынных слонов.ts
Format                         : MPEG-TS
File size                      : 3.06 GiB
Duration                       : 43 min 59 s
Overall bit rate mode          : Variable
Overall bit rate               : 9 968 kb/s

Video
ID                             : 321 (0x141)
Menu ID                        : 1 (0x1)
Format                         : AVC
Format/Info                    : Advanced Video Codec
Format profile                 : [email protected]
Format settings                : CABAC / 4 Ref Frames
Format settings, CABAC         : Yes
Format settings, Reference fra : 4 frames
Codec ID                       : 27
Duration                       : 43 min 59 s
Bit rate                       : 9 088 kb/s
Width                          : 1 920 pixels
Height                         : 1 080 pixels
Display aspect ratio           : 16:9
Frame rate                     : 25.000 FPS
Standard                       : Component
Color space                    : YUV
Chroma subsampling             : 4:2:0
Bit depth                      : 8 bits
Scan type                      : Interlaced
Scan type, store method        : Separated fields
Scan order                     : Top Field First
Bits/(Pixel*Frame)             : 0.175
Stream size                    : 2.79 GiB (91%)
Color range                    : Limited
Color primaries                : BT.709
Transfer characteristics       : BT.709
Matrix coefficients            : BT.709

Audio #1
ID                             : 401 (0x191)
Menu ID                        : 1 (0x1)
Format                         : MPEG Audio
Format version                 : Version 1
Format profile                 : Layer 2
Codec ID                       : 3
Duration                       : 43 min 59 s
Bit rate mode                  : Constant
Bit rate                       : 192 kb/s
Channel(s)                     : 2 channels
Sampling rate                  : 48.0 kHz
Frame rate                     : 41.667 FPS (1152 SPF)
Compression mode               : Lossy
Stream size                    : 60.4 MiB (2%)
Language                       : Russian

Audio #2
ID                             : 451 (0x1C3)
Menu ID                        : 1 (0x1)
Format                         : MPEG Audio
Format version                 : Version 1
Format profile                 : Layer 2
Codec ID                       : 3
Duration                       : 43 min 59 s
Bit rate mode                  : Constant
Bit rate                       : 192 kb/s
Channel(s)                     : 2 channels
Sampling rate                  : 48.0 kHz
Frame rate                     : 41.667 FPS (1152 SPF)
Compression mode               : Lossy
Stream size                    : 60.4 MiB (2%)
Language                       : English

Этот торрент недоступен для скачивания без регистрации, однако доступен по публичной magnet-ссылке (источники с публичных трекеров). Перед использованием ссылки прочтите, пожалуйста Пользовательское соглашение, а также как можно дольше оставайтесь на раздаче! Для того, чтобы скачать сам торрент-файл (который видит больше источников), а также для того, чтобы поблагодарить релизера, вам необходимо зарегистрироваться. Если регистрироваться лень - вы можете также попробовать скачать релиз по нашим партнерским ссылкам ниже. Кроме того, зарегистрированным пользователям не показывается всплывающая реклама при скачивании.

[underver.se].t201720.torrent
Трекер: Зарегистрирован   [ 11.03.2021 07:41 ]  
Статус: проверено (by Evgenii82 at 11.03.2021 07:42)
Поблагодарили: 1 человек
Тип торрента: публичный - доступные источники с открытых трекеров: 
Размер: 3.06 GB (занимает 0.7 DVDR, для записи нужно 1 болванка DVDR/RW)
 
 

Яндекс.Метрика powered by Sphinx


В Н И М А Н И Е
Сайт не распространяет и не хранит электронные версии произведений, а лишь бесплатно и без коммерческой выгоды (не требуя взамен платы,
SMS и т.д.) предоставляет доступ к создаваемому пользователями каталогу ссылок на торрент-файлы, которые содержат только списки хеш-сумм.
Убедительная просьба с жалобами обращаться напрямую к пользователю, разместившему торрент файл.

Вверх