Loading...
Error

Армия лососёвых акул / Alaskan Killer Shark (Майк Делвин) [2009 г., Документальный, познавательный, флора, фауна, HDTV 1080i] Dub

Статистика раздачи
Размер:  1.97 GB   |    Зарегистрирован:  1 год 8 месяцев   |    Скачан:  6 раз
Сидов:  1  |  0 KB/s  ]   Личеров:  0  |  0 KB/s  ]

* - сиды/пиры с внешних источников

   
 
Автор Сообщение

Evgenii82 Пол:Муж

19-Янв-2021 16:53

Армия лососёвых акул / Alaskan Killer Shark


Год выпуска: 2009
Жанр: Документальный, познавательный, флора, фауна
Страна: Великобритания
Режиссер: Майк Делвин
Сюжет фильма:
Ежегодно,преодолевая огромные расстояния,тысячи акул устремляются в холодные воды Аляски.Здесь их ждёт встреча с тихоокеанским лососем. Лосось совершает собственную одиссею.Он возвращается к родным берегам,чтобы дать жизнь следующему поколению.Но прежде он должен избежать лососевой акулы -- хищника холодных вод Аляски
Качество видео: HDTV (1080i)

Продолжительность: 00:47:26
Формат: TS
Видео: MPEG-4 AVC, 1920x1080, 5465 Кбит/с
Аудио: русский, дублированный, MP2, 192 kbps, стерео

Код:

General
ID                             : 6 (0x6)
Complete name                  : G:\Armija lososevyx akul.ts
Format                         : MPEG-TS
File size                      : 1.97 GiB
Duration                       : 47 min 26 s
Overall bit rate mode          : Variable
Overall bit rate               : 5 953 kb/s

Video
ID                             : 1500 (0x5DC)
Menu ID                        : 50 (0x32)
Format                         : AVC
Format/Info                    : Advanced Video Codec
Format profile                 : [email protected]
Format settings                : CABAC / 4 Ref Frames
Format settings, CABAC         : Yes
Format settings, Reference fra : 4 frames
Codec ID                       : 27
Duration                       : 47 min 25 s
Bit rate                       : 5 465 kb/s
Width                          : 1 920 pixels
Height                         : 1 080 pixels
Display aspect ratio           : 16:9
Frame rate                     : 25.000 FPS
Standard                       : Component
Color space                    : YUV
Chroma subsampling             : 4:2:0
Bit depth                      : 8 bits
Scan type                      : Interlaced
Scan type, store method        : Separated fields
Scan order                     : Top Field First
Bits/(Pixel*Frame)             : 0.105
Stream size                    : 1.81 GiB (92%)
Color range                    : Limited
Color primaries                : BT.709
Transfer characteristics       : BT.709
Matrix coefficients            : BT.709

Audio
ID                             : 1510 (0x5E6)
Menu ID                        : 50 (0x32)
Format                         : MPEG Audio
Format version                 : Version 1
Format profile                 : Layer 2
Codec ID                       : 4
Duration                       : 47 min 26 s
Bit rate mode                  : Constant
Bit rate                       : 192 kb/s
Channel(s)                     : 2 channels
Sampling rate                  : 48.0 kHz
Frame rate                     : 41.667 FPS (1152 SPF)
Compression mode               : Lossy
Stream size                    : 65.2 MiB (3%)
Language                       : Russian

Этот торрент недоступен для скачивания без регистрации, однако доступен по публичной magnet-ссылке (источники с публичных трекеров). Перед использованием ссылки прочтите, пожалуйста Пользовательское соглашение, а также как можно дольше оставайтесь на раздаче! Для того, чтобы скачать сам торрент-файл (который видит больше источников), а также для того, чтобы поблагодарить релизера, вам необходимо зарегистрироваться. Если регистрироваться лень - вы можете также попробовать скачать релиз по нашим партнерским ссылкам ниже. Кроме того, зарегистрированным пользователям не показывается всплывающая реклама при скачивании.

[underver.se].t195813.torrent
Трекер: Зарегистрирован   [ 19.01.2021 16:53 ]  
Статус: проверено (by Evgenii82 at 19.01.2021 16:53)
Поблагодарили: пока никто не поблагодарил...
Тип торрента: публичный - доступные источники с открытых трекеров: 
Размер: 1.97 GB (занимает 0.45 DVDR, для записи нужно 1 болванка DVDR/RW)
 
 

Яндекс.Метрика powered by Sphinx


В Н И М А Н И Е
Сайт не распространяет и не хранит электронные версии произведений, а лишь бесплатно и без коммерческой выгоды (не требуя взамен платы,
SMS и т.д.) предоставляет доступ к создаваемому пользователями каталогу ссылок на торрент-файлы, которые содержат только списки хеш-сумм.
Убедительная просьба с жалобами обращаться напрямую к пользователю, разместившему торрент файл.

Вверх