Loading...
Error

Дикая Азия: Существа оттепели / Wild Asia: Creatures of the Thaw (Майкл Хэкин) [2010 г., Документальный, природа, флора, фауна, BDRip 1080p] Dub + Original

Статистика раздачи
Размер:  4.49 GB   |    Зарегистрирован:  1 год 8 месяцев   |    Скачан:  3 раза

Полного источника не было: 6 месяцев

Сидов:  0  |  0 KB/s  ]   Личеров:  0  |  0 KB/s  ]

* - сиды/пиры с внешних источников

   
 
Автор Сообщение

Evgenii82 Пол:Муж

18-Янв-2021 15:06

Дикая Азия: Существа оттепели / Wild Asia: Creatures of the Thaw


Год выпуска: 2010
Жанр: Документальный, природа, флора, фауна
Страна: США
Режиссер: Майкл Хэкин
Сюжет фильма:
Зимы в Северо-Восточной Азии настолько холодные, что пресная вода замерзает. Многие существа мигрируют в это время. Но те, что остаются, разработали сложные стратегии, чтобы пережить суровые зимы и воспользоваться коротким теплым летом в этом регионе. На этом увлекательном диске показаны: сибирский кликун, молодые розовые лососи, бурые лягушки, хохлатый зимородок и другие. Как они борются за свое выживание.
Качество видео: BDRip 1080p

Продолжительность: 00:52:17
Формат: MKV
Видео: MPEG-4 AVC, 1920x1080, 11.6 Мбит/с
Аудио #1: русский, дублированный, AC3 2.0, 192 kbps
Аудио #2: английский, оригинал, AC3 2.0, 224 kbps
Субтитры: тип: вшитые отключаемые, английский,

Код:

General
Unique ID                      : 175196734458315291079140843353625113001 (0x83CDA9E895B75FA89906743D1088B1A9)
Complete name                  : G:\Дикая Азия. Существа оттепели (2010, 1080p).mkv
Format                         : Matroska
Format version                 : Version 4
File size                      : 4.49 GiB
Duration                       : 52 min 17 s
Overall bit rate               : 12.3 Mb/s
Encoded date                   : UTC 2015-01-07 17:09:19
Writing application            : mkvmerge v7.5.0 ('Glass Culture') 32bit built on Jan  4 2015 16:37:25
Writing library                : libebml v1.3.1 + libmatroska v1.4.2

Video
ID                             : 1
Format                         : AVC
Format/Info                    : Advanced Video Codec
Format profile                 : [email protected]
Format settings                : CABAC / 4 Ref Frames
Format settings, CABAC         : Yes
Format settings, Reference fra : 4 frames
Codec ID                       : V_MPEG4/ISO/AVC
Duration                       : 52 min 17 s
Bit rate                       : 11.9 Mb/s
Width                          : 1 920 pixels
Height                         : 1 080 pixels
Display aspect ratio           : 16:9
Frame rate mode                : Constant
Frame rate                     : 29.970 (30000/1001) FPS
Color space                    : YUV
Chroma subsampling             : 4:2:0
Bit depth                      : 8 bits
Scan type                      : Progressive
Bits/(Pixel*Frame)             : 0.191
Stream size                    : 4.34 GiB (97%)
Writing library                : x264 core 142 r2431 ac76440
Encoding settings              : cabac=1 / ref=4 / deblock=1:-2:-2 / analyse=0x3:0x133 / me=umh / subme=11 / psy=1 / psy_rd=1.00:0.10 / mixed_ref=1 / me_range=32 / chroma_me=1 / trellis=2 / 8x8dct=1 / cqm=0 / deadzone=21,11 / fast_pskip=0 / chroma_qp_offset=-3 / threads=16 / lookahead_threads=2 / sliced_threads=0 / nr=0 / decimate=1 / interlaced=0 / bluray_compat=0 / constrained_intra=0 / bframes=8 / b_pyramid=2 / b_adapt=2 / b_bias=0 / direct=3 / weightb=1 / open_gop=0 / weightp=2 / keyint=360 / keyint_min=35 / scenecut=40 / intra_refresh=0 / rc_lookahead=60 / rc=crf / mbtree=1 / crf=19.0 / qcomp=0.60 / qpmin=0 / qpmax=69 / qpstep=4 / vbv_maxrate=62500 / vbv_bufsize=78125 / crf_max=0.0 / nal_hrd=none / filler=0 / ip_ratio=1.40 / aq=1:1.00
Language                       : English
Default                        : Yes
Forced                         : No

Audio #1
ID                             : 2
Format                         : AC-3
Format/Info                    : Audio Coding 3
Commercial name                : Dolby Digital
Codec ID                       : A_AC3
Duration                       : 52 min 17 s
Bit rate mode                  : Constant
Bit rate                       : 192 kb/s
Channel(s)                     : 2 channels
Channel layout                 : L R
Sampling rate                  : 48.0 kHz
Frame rate                     : 31.250 FPS (1536 SPF)
Compression mode               : Lossy
Stream size                    : 71.8 MiB (2%)
Language                       : Russian
Service kind                   : Complete Main
Default                        : Yes
Forced                         : No

Audio #2
ID                             : 3
Format                         : AC-3
Format/Info                    : Audio Coding 3
Commercial name                : Dolby Digital
Codec ID                       : A_AC3
Duration                       : 52 min 11 s
Bit rate mode                  : Constant
Bit rate                       : 224 kb/s
Channel(s)                     : 2 channels
Channel layout                 : L R
Sampling rate                  : 48.0 kHz
Frame rate                     : 31.250 FPS (1536 SPF)
Compression mode               : Lossy
Stream size                    : 83.6 MiB (2%)
Language                       : English
Service kind                   : Complete Main
Default                        : No
Forced                         : No

Text
ID                             : 4
Format                         : UTF-8
Codec ID                       : S_TEXT/UTF8
Codec ID/Info                  : UTF-8 Plain Text
Duration                       : 50 min 41 s
Bit rate                       : 64 b/s
Count of elements              : 510
Stream size                    : 23.9 KiB (0%)
Language                       : English
Default                        : Yes
Forced                         : No

Этот торрент недоступен для скачивания без регистрации, однако доступен по публичной magnet-ссылке (источники с публичных трекеров). Перед использованием ссылки прочтите, пожалуйста Пользовательское соглашение, а также как можно дольше оставайтесь на раздаче! Для того, чтобы скачать сам торрент-файл (который видит больше источников), а также для того, чтобы поблагодарить релизера, вам необходимо зарегистрироваться. Если регистрироваться лень - вы можете также попробовать скачать релиз по нашим партнерским ссылкам ниже. Кроме того, зарегистрированным пользователям не показывается всплывающая реклама при скачивании.

[underver.se].t195487.torrent
Трекер: Зарегистрирован   [ 18.01.2021 15:06 ]  
Статус: проверено (by Evgenii82 at 18.01.2021 15:06)
Поблагодарили: пока никто не поблагодарил...
Тип торрента: публичный - доступные источники с открытых трекеров: 
Размер: 4.49 GB (занимает 1.03 DVDR, для записи нужно 2 болванки DVDR/RW)
 
 

Яндекс.Метрика powered by Sphinx


В Н И М А Н И Е
Сайт не распространяет и не хранит электронные версии произведений, а лишь бесплатно и без коммерческой выгоды (не требуя взамен платы,
SMS и т.д.) предоставляет доступ к создаваемому пользователями каталогу ссылок на торрент-файлы, которые содержат только списки хеш-сумм.
Убедительная просьба с жалобами обращаться напрямую к пользователю, разместившему торрент файл.

Вверх