Loading...
Error

Крокодилы: Последний дракон / Crocodiles: The Last Dragon (Фернандо Гонсалес Ситгес) [2009 г., Документальный, познавательный, хищники, крокодилы, HDTV 1080i] VO

Статистика раздачи
Размер:  4.47 GB   |    Зарегистрирован:  1 год 8 месяцев   |    Скачан:  6 раз

Полного источника не было: 20 дней

Сидов:  0  |  0 KB/s  ]   Личеров:  0  |  0 KB/s  ]

* - сиды/пиры с внешних источников

   
 
Автор Сообщение

Evgenii82 Пол:Муж

16-Янв-2021 11:57

Крокодилы: Последний дракон / Crocodiles: The Last Dragon


Год выпуска: 2009
Жанр: Документальный, познавательный, хищники, крокодилы
Страна: Испания
Режиссер: Фернандо Гонсалес Ситгес
Сюжет фильма:
Они живут на Земле больше 80 000 000 лет. Сильные, проворные, выносливые и чрезвычайно агрессивные. Эти животные охотились на динозавров и пережили их, а со временем заселили 4 материка. Выжили во время массового вымирания животных, ледниковых периодов и геологических катастроф, но теперь им угрожает самый опасный хищник за всю историю земли - люди. Это крокодилы. И вот их история...
Качество видео: HDTV 1080i

Продолжительность: 00:51:59
Формат: MKV
Видео: MPEG-4 AVC, 1920x1080, 11600 Кбит/с
Аудио: русский, одноголосый закадровый [профессиональный], AC3 2.0, 448 kbps

Код:

General
Unique ID                      : 199403718697365231036307301995912608897 (0x9603C260939E3083997ED228A293BC81)
Complete name                  : G:\Крокодилы - Последний дракон (Crocodiles - The Last Dragon) [2009].mkv
Format                         : Matroska
Format version                 : Version 2
File size                      : 4.47 GiB
Duration                       : 51 min 59 s
Overall bit rate mode          : Variable
Overall bit rate               : 12.3 Mb/s
Movie name                     : Crocodiles: The Last Dragon. 2009. HDTV (1080i) - *другой трекер*-HD (by YlNiAn)
Encoded date                   : UTC 2011-03-08 09:49:04
Writing application            : mkvmerge v4.5.0 ('Speed of Light') сборка от Feb  1 2011 02:10:32
Writing library                : libebml v1.2.0 + libmatroska v1.1.0

Video
ID                             : 1
Format                         : AVC
Format/Info                    : Advanced Video Codec
Format profile                 : [email protected]
Format settings                : CABAC / 4 Ref Frames
Format settings, CABAC         : Yes
Format settings, Reference fra : 4 frames
Codec ID                       : V_MPEG4/ISO/AVC
Duration                       : 51 min 59 s
Bit rate mode                  : Variable
Bit rate                       : 11.6 Mb/s
Maximum bit rate               : 40.0 Mb/s
Width                          : 1 920 pixels
Height                         : 1 080 pixels
Display aspect ratio           : 16:9
Frame rate mode                : Constant
Frame rate                     : 25.000 FPS
Standard                       : Component
Color space                    : YUV
Chroma subsampling             : 4:2:0
Bit depth                      : 8 bits
Scan type                      : Interlaced
Scan type, store method        : Separated fields
Scan order                     : Top Field First
Bits/(Pixel*Frame)             : 0.224
Stream size                    : 4.22 GiB (94%)
Title                          : Crocodiles: The Last Dragon. 2009. HDTV (1080i)
Language                       : Spanish
Default                        : Yes
Forced                         : Yes
Color range                    : Limited
Color primaries                : BT.709
Transfer characteristics       : BT.709
Matrix coefficients            : BT.709

Audio
ID                             : 2
Format                         : AC-3
Format/Info                    : Audio Coding 3
Commercial name                : Dolby Digital
Codec ID                       : A_AC3
Duration                       : 51 min 59 s
Bit rate mode                  : Constant
Bit rate                       : 448 kb/s
Channel(s)                     : 2 channels
Channel layout                 : L R
Sampling rate                  : 48.0 kHz
Frame rate                     : 31.250 FPS (1536 SPF)
Compression mode               : Lossy
Delay relative to video        : 148 ms
Stream size                    : 167 MiB (4%)
Title                          : DUB (AC3 2.0 448 kbps)
Language                       : Russian
Service kind                   : Complete Main
Default                        : Yes
Forced                         : Yes

Этот торрент недоступен для скачивания без регистрации, однако доступен по публичной magnet-ссылке (источники с публичных трекеров). Перед использованием ссылки прочтите, пожалуйста Пользовательское соглашение, а также как можно дольше оставайтесь на раздаче! Для того, чтобы скачать сам торрент-файл (который видит больше источников), а также для того, чтобы поблагодарить релизера, вам необходимо зарегистрироваться. Если регистрироваться лень - вы можете также попробовать скачать релиз по нашим партнерским ссылкам ниже. Кроме того, зарегистрированным пользователям не показывается всплывающая реклама при скачивании.

[underver.se].t195216.torrent
Трекер: Зарегистрирован   [ 16.01.2021 11:57 ]  
Статус: проверено (by Evgenii82 at 16.01.2021 11:57)
Поблагодарили: 1 человек
Тип торрента: публичный - доступные источники с открытых трекеров: 
Размер: 4.47 GB (занимает 1.02 DVDR, для записи нужно 2 болванки DVDR/RW)
 
 

[email protected]gmail.com Пол:Муж

23-Янв-2021 04:25

:)

Яндекс.Метрика powered by Sphinx


В Н И М А Н И Е
Сайт не распространяет и не хранит электронные версии произведений, а лишь бесплатно и без коммерческой выгоды (не требуя взамен платы,
SMS и т.д.) предоставляет доступ к создаваемому пользователями каталогу ссылок на торрент-файлы, которые содержат только списки хеш-сумм.
Убедительная просьба с жалобами обращаться напрямую к пользователю, разместившему торрент файл.

Вверх