Loading...
Error

Львы-хулиганы / Lions Behaving Badly (Сью Уэстерн) [2005 г., Документальный, природа, флора, фауна, HDTV 1080i] MVO

Статистика раздачи
Размер:  2.48 GB   |    Зарегистрирован:  1 год 8 месяцев   |    Скачан:  5 раз
Сидов:  1  |  0 KB/s  ]   Личеров:  0  |  0 KB/s  ]

* - сиды/пиры с внешних источников

   
 
Автор Сообщение

Evgenii82 Пол:Муж

16-Янв-2021 11:08

National Geographic. Львы-хулиганы / Lions Behaving Badly


Год выпуска: 2005
Жанр: Документальный, природа, флора, фауна
Страна: США
Режиссер: Сью Уэстерн
Сюжет фильма:
Макалоло - часть национального парка Хванге в Зимбабве - это суровая равнинная местность. Здесь господствуют два замечательных вида животных: буйволы - благодаря весу, мощи и агрессивности, и львы - из-за свирепости и упорства.
Качество видео: HDTV 1080i

Продолжительность: 00:46:57
Формат: TS
Видео: MPEG-4 AVC, 1920x1080, 7007 Кбит/с
Аудио: русский, многоголосый закадровый [профессиональный], MP3 2.0, 192 kbps

Код:

General
ID                             : 1 (0x1)
Complete name                  : G:\Львы-хулиганы_2005_HDTV1080i.ts
Format                         : MPEG-TS
File size                      : 2.48 GiB
Duration                       : 46 min 57 s
Overall bit rate mode          : Variable
Overall bit rate               : 7 576 kb/s

Video
ID                             : 1500 (0x5DC)
Menu ID                        : 1 (0x1)
Format                         : AVC
Format/Info                    : Advanced Video Codec
Format profile                 : [email protected]
Format settings                : CABAC / 4 Ref Frames
Format settings, CABAC         : Yes
Format settings, Reference fra : 4 frames
Codec ID                       : 27
Duration                       : 46 min 57 s
Bit rate                       : 7 007 kb/s
Width                          : 1 920 pixels
Height                         : 1 080 pixels
Display aspect ratio           : 16:9
Frame rate                     : 25.000 FPS
Standard                       : Component
Color space                    : YUV
Chroma subsampling             : 4:2:0
Bit depth                      : 8 bits
Scan type                      : Interlaced
Scan type, store method        : Separated fields
Scan order                     : Top Field First
Bits/(Pixel*Frame)             : 0.135
Stream size                    : 2.30 GiB (92%)
Color range                    : Limited
Color primaries                : BT.709
Transfer characteristics       : BT.709
Matrix coefficients            : BT.709

Audio
ID                             : 1510 (0x5E6)
Menu ID                        : 1 (0x1)
Format                         : MPEG Audio
Format version                 : Version 1
Format profile                 : Layer 2
Codec ID                       : 3
Duration                       : 46 min 57 s
Bit rate mode                  : Constant
Bit rate                       : 192 kb/s
Channel(s)                     : 2 channels
Sampling rate                  : 48.0 kHz
Frame rate                     : 41.667 FPS (1152 SPF)
Compression mode               : Lossy
Stream size                    : 64.5 MiB (3%)
Language                       : Russian

Этот торрент недоступен для скачивания без регистрации, однако доступен по публичной magnet-ссылке (источники с публичных трекеров). Перед использованием ссылки прочтите, пожалуйста Пользовательское соглашение, а также как можно дольше оставайтесь на раздаче! Для того, чтобы скачать сам торрент-файл (который видит больше источников), а также для того, чтобы поблагодарить релизера, вам необходимо зарегистрироваться. Если регистрироваться лень - вы можете также попробовать скачать релиз по нашим партнерским ссылкам ниже. Кроме того, зарегистрированным пользователям не показывается всплывающая реклама при скачивании.

[underver.se].t195215.torrent
Трекер: Зарегистрирован   [ 16.01.2021 11:08 ]  
Статус: проверено (by Evgenii82 at 16.01.2021 11:10)
Поблагодарили: пока никто не поблагодарил...
Тип торрента: публичный - доступные источники с открытых трекеров: 
Размер: 2.48 GB (занимает 0.57 DVDR, для записи нужно 1 болванка DVDR/RW)
 
 

Яндекс.Метрика powered by Sphinx


В Н И М А Н И Е
Сайт не распространяет и не хранит электронные версии произведений, а лишь бесплатно и без коммерческой выгоды (не требуя взамен платы,
SMS и т.д.) предоставляет доступ к создаваемому пользователями каталогу ссылок на торрент-файлы, которые содержат только списки хеш-сумм.
Убедительная просьба с жалобами обращаться напрямую к пользователю, разместившему торрент файл.

Вверх