Loading...
Error

Убийцы с большого озера / The Lakeshore Killers (Дон Персиваль) [2015 г., Документальный, природа, флора, фауна, HDTV 1080i] Dub + Original

Статистика раздачи
Размер:  3.05 GB   |    Зарегистрирован:  1 год 8 месяцев   |    Скачан:  2 раза

Полного источника не было: 11 дней

Сидов:  0  |  0 KB/s  ]   Личеров:  0  |  0 KB/s  ]

* - сиды/пиры с внешних источников

   
 
Автор Сообщение

Evgenii82 Пол:Муж

15-Янв-2021 13:02

Убийцы с большого озера / The Lakeshore Killers


Год выпуска: 2015
Жанр: Документальный, природа, флора, фауна
Страна: США
Режиссер: Дон Персиваль
Сюжет фильма:
В самом сердце Африки, в долине реки Замбези, находится великое озеро. Здесь мы познакомимся с тремя львами в самом расцвете сил, которым ещё многое придётся доказать. Они должны наладить крепкую связь с новым прайдом и пройти свой путь через опасности этой дикой местности, чтобы стать настоящими самцами прайда и правителями этих земель. Жизнь в долине Замбези непростая: на берегу озера за пищу приходится соперничать с крокодилами. Это озеро — источник пропитания, но также и большой опасности. Прайд не может существовать, питаясь одними импалами и водяными козлами, поэтому старается по возможности охотиться на бегемотов и бизонов. В конце концов, прайд объединяется, чтобы стать полноценной охотничьей командой и успешно поймать большую добычу. Выживание является лейтмотивом этой увлекательной истории и мотивацией львов. Помимо этого, мы понаблюдаем за тактикой выживания львов с высоты птичьего полёта и увидим, каким неожиданным образом они приспосабливают свои охотничьи навыки, чтобы достичь успеха.
Качество видео: HDTV 1080i

Продолжительность: 00:43:06
Формат: TS
Видео: MPEG-4 AVC, 1920x1080, 9233 Кбит/с
Аудио #1: русский, дублированный, [студия "Велес", Сергей Куприянов], MP2, 192 kbps, стерео
Аудио #2: английский, оригинал, MP2, 192 kbps, стерео

Код:

General
ID                             : 1 (0x1)
Complete name                  : K:\Торренты\The lakeshore Killers (Rus, Eng, HDTV-1080i, h264, MP2) [2015].ts
Format                         : MPEG-TS
File size                      : 3.05 GiB
Duration                       : 43 min 7 s
Overall bit rate mode          : Variable
Overall bit rate               : 10.1 Mb/s

Video
ID                             : 321 (0x141)
Menu ID                        : 14101 (0x3715)
Format                         : AVC
Format/Info                    : Advanced Video Codec
Format profile                 : [email protected]
Format settings                : CABAC / 4 Ref Frames
Format settings, CABAC         : Yes
Format settings, Reference fra : 4 frames
Codec ID                       : 27
Duration                       : 43 min 6 s
Bit rate                       : 9 233 kb/s
Width                          : 1 920 pixels
Height                         : 1 080 pixels
Display aspect ratio           : 16:9
Frame rate                     : 25.000 FPS
Standard                       : Component
Color space                    : YUV
Chroma subsampling             : 4:2:0
Bit depth                      : 8 bits
Scan type                      : Interlaced
Scan type, store method        : Separated fields
Scan order                     : Top Field First
Bits/(Pixel*Frame)             : 0.178
Stream size                    : 2.78 GiB (91%)
Color range                    : Limited
Color primaries                : BT.709
Transfer characteristics       : BT.709
Matrix coefficients            : BT.709

Audio #1
ID                             : 401 (0x191)
Menu ID                        : 14101 (0x3715)
Format                         : MPEG Audio
Format version                 : Version 1
Format profile                 : Layer 2
Codec ID                       : 3
Duration                       : 43 min 7 s
Bit rate mode                  : Constant
Bit rate                       : 192 kb/s
Channel(s)                     : 2 channels
Sampling rate                  : 48.0 kHz
Frame rate                     : 41.667 FPS (1152 SPF)
Compression mode               : Lossy
Delay relative to video        : -120 ms
Stream size                    : 59.2 MiB (2%)
Language                       : Russian

Audio #2
ID                             : 402 (0x192)
Menu ID                        : 14101 (0x3715)
Format                         : MPEG Audio
Format version                 : Version 1
Format profile                 : Layer 2
Codec ID                       : 3
Duration                       : 43 min 7 s
Bit rate mode                  : Constant
Bit rate                       : 192 kb/s
Channel(s)                     : 2 channels
Sampling rate                  : 48.0 kHz
Frame rate                     : 41.667 FPS (1152 SPF)
Compression mode               : Lossy
Delay relative to video        : -120 ms
Stream size                    : 59.2 MiB (2%)
Language                       : English

Этот торрент недоступен для скачивания без регистрации, однако доступен по публичной magnet-ссылке (источники с публичных трекеров). Перед использованием ссылки прочтите, пожалуйста Пользовательское соглашение, а также как можно дольше оставайтесь на раздаче! Для того, чтобы скачать сам торрент-файл (который видит больше источников), а также для того, чтобы поблагодарить релизера, вам необходимо зарегистрироваться. Если регистрироваться лень - вы можете также попробовать скачать релиз по нашим партнерским ссылкам ниже. Кроме того, зарегистрированным пользователям не показывается всплывающая реклама при скачивании.

[underver.se].t195166.torrent
Трекер: Зарегистрирован   [ 15.01.2021 13:02 ]  
Статус: проверено (by Evgenii82 at 15.01.2021 13:03)
Поблагодарили: пока никто не поблагодарил...
Тип торрента: публичный - доступные источники с открытых трекеров: 
Размер: 3.05 GB (занимает 0.7 DVDR, для записи нужно 1 болванка DVDR/RW)
 
 

Яндекс.Метрика powered by Sphinx


В Н И М А Н И Е
Сайт не распространяет и не хранит электронные версии произведений, а лишь бесплатно и без коммерческой выгоды (не требуя взамен платы,
SMS и т.д.) предоставляет доступ к создаваемому пользователями каталогу ссылок на торрент-файлы, которые содержат только списки хеш-сумм.
Убедительная просьба с жалобами обращаться напрямую к пользователю, разместившему торрент файл.

Вверх