Loading...
Error

Анаконда. Тихий убийца / Anaconda. Silent killer (Марион Пуллманн) [2014 г., Документальный, природа, флора, фауна, HDTV 1080i] Dub + Original

Статистика раздачи
Размер:  3.17 GB   |    Зарегистрирован:  1 год 8 месяцев   |    Скачан:  10 раз

Полного источника не было: 4 дня

Сидов:  0  |  0 KB/s  ]   Личеров:  0  |  0 KB/s  ]

* - сиды/пиры с внешних источников

   
 
Автор Сообщение

Evgenii82 Пол:Муж

15-Янв-2021 12:00

Анаконда. Тихий убийца / Anaconda. Silent killer


Год выпуска: 2014
Жанр: Документальный, природа, флора, фауна
Страна: США
Режиссер: Марион Пуллманн
В ролях: Дэвид О`Брайэн
Сюжет фильма:
Анаконда — огромный безжалостный и ненасытный охотник, смертоносный хозяин болот, чье туловище состоит из шести метров мышц, самая большая и тяжелая змея на Земле. Она имеет дурную славу из — за своих огромных размеров и наводящих ужас нападений. Болота, заводи и реки восточных Анд в Южной Америке, ее среда обитания.
Качество видео: HDTV 1080i

Продолжительность: 00:43:59
Формат: TS
Видео: MPEG-4 AVC, 1920x1080, 9434 Кбит/с
Аудио #1: русский, дублированный, MP2, 192 kbps, стерео
Аудио #2: английский, оригинал, MP2, 192 kbps, стерео

Код:

General
ID                             : 1 (0x1)
Complete name                  : G:\Anakonda.TiXi.Ubiica.2014.HDTV.1080i.by.KinoHitHD.ts
Format                         : MPEG-TS
File size                      : 3.17 GiB
Duration                       : 43 min 59 s
Overall bit rate mode          : Variable
Overall bit rate               : 10.3 Mb/s

Video
ID                             : 201 (0xC9)
Menu ID                        : 20101 (0x4E85)
Format                         : AVC
Format/Info                    : Advanced Video Codec
Format profile                 : [email protected]
Format settings                : CABAC / 4 Ref Frames
Format settings, CABAC         : Yes
Format settings, Reference fra : 4 frames
Codec ID                       : 27
Duration                       : 43 min 59 s
Bit rate                       : 9 434 kb/s
Width                          : 1 920 pixels
Height                         : 1 080 pixels
Display aspect ratio           : 16:9
Frame rate                     : 25.000 FPS
Color space                    : YUV
Chroma subsampling             : 4:2:0
Bit depth                      : 8 bits
Scan type                      : Interlaced
Scan type, store method        : Separated fields
Scan order                     : Top Field First
Bits/(Pixel*Frame)             : 0.182
Stream size                    : 2.90 GiB (91%)
Color range                    : Limited
Color primaries                : BT.709
Transfer characteristics       : BT.709
Matrix coefficients            : BT.709

Audio #1
ID                             : 301 (0x12D)
Menu ID                        : 20101 (0x4E85)
Format                         : MPEG Audio
Format version                 : Version 1
Format profile                 : Layer 2
Codec ID                       : 3
Duration                       : 43 min 59 s
Bit rate mode                  : Constant
Bit rate                       : 192 kb/s
Channel(s)                     : 2 channels
Sampling rate                  : 48.0 kHz
Frame rate                     : 41.667 FPS (1152 SPF)
Compression mode               : Lossy
Stream size                    : 60.4 MiB (2%)
Language                       : Russian

Audio #2
ID                             : 302 (0x12E)
Menu ID                        : 20101 (0x4E85)
Format                         : MPEG Audio
Format version                 : Version 1
Format profile                 : Layer 2
Codec ID                       : 3
Duration                       : 43 min 59 s
Bit rate mode                  : Constant
Bit rate                       : 192 kb/s
Channel(s)                     : 2 channels
Sampling rate                  : 48.0 kHz
Frame rate                     : 41.667 FPS (1152 SPF)
Compression mode               : Lossy
Stream size                    : 60.4 MiB (2%)
Language                       : English

Этот торрент недоступен для скачивания без регистрации, однако доступен по публичной magnet-ссылке (источники с публичных трекеров). Перед использованием ссылки прочтите, пожалуйста Пользовательское соглашение, а также как можно дольше оставайтесь на раздаче! Для того, чтобы скачать сам торрент-файл (который видит больше источников), а также для того, чтобы поблагодарить релизера, вам необходимо зарегистрироваться. Если регистрироваться лень - вы можете также попробовать скачать релиз по нашим партнерским ссылкам ниже. Кроме того, зарегистрированным пользователям не показывается всплывающая реклама при скачивании.

[underver.se].t195158.torrent
Трекер: Зарегистрирован   [ 15.01.2021 12:00 ]  
Статус: проверено (by Evgenii82 at 15.01.2021 12:01)
Поблагодарили: пока никто не поблагодарил...
Тип торрента: публичный - доступные источники с открытых трекеров: 
Размер: 3.17 GB (занимает 0.73 DVDR, для записи нужно 1 болванка DVDR/RW)
 
 

Яндекс.Метрика powered by Sphinx


В Н И М А Н И Е
Сайт не распространяет и не хранит электронные версии произведений, а лишь бесплатно и без коммерческой выгоды (не требуя взамен платы,
SMS и т.д.) предоставляет доступ к создаваемому пользователями каталогу ссылок на торрент-файлы, которые содержат только списки хеш-сумм.
Убедительная просьба с жалобами обращаться напрямую к пользователю, разместившему торрент файл.

Вверх