Loading...
Error

Ермак (Владимир Краснопольский, Валерий Усков) [1996 г., драма, приключения, история, WEB-DLRip-AVC] [киноверсия]

Статистика раздачи
Размер:  2,12 GB   |    Зарегистрирован:  2 дня 8 часов   |    Скачан:  1 раз

Полного источника не было: 1 день 18 часов

Сидов:  0  |  0 KB/s  ]   Личеров:  0  |  0 KB/s  ]

* - сиды/пиры с внешних источников

   
 
Автор Сообщение

Parallelo Пол:Муж

13-Янв-2021 22:05

Ермак

Год выпуска: 1996
Жанр: Драма, приключения, история
Страна: Россия
Режиссер: Владимир Краснопольский, Валерий Усков
В ролях: Виктор Степанов, Евгений Евстигнеев, Никита Джигурда, Ирина Алфёрова, Ходжадурды Нарлиев, Пётр Вельяминов, Алексей Колесник, Михаил Жигалов, Александра Колкунова, Николай Михеев, Макиль Куланбаев, Валерий Порошин, Виктор Сергачёв, Тахир Матиуллин, Сергей Фетисов, Сергей Иванов, Валентин Трущенко, Сергей Гармаш, Геннадий Мороз, Александр Гарин, Алдабек Шалбаев, Мурад Алиев, Юрий Саранцев
Сюжет фильма:
Вторая половина ХVI века, время тирании Ивана Грозного... Фильм рассказывает об одной из наиболее ярких, противоречивых, трагических фигур той эпохи - легендарном атамане Ермаке Тимофеевиче, чей поход за Урал послужил присоединению сибирских земель к московскому царству.



  • Российская премьера: 7 ноября 1997

Качество видео: WEB-DLRip-AVC
Продолжительность: 02:12:01
Формат: MKV
Видео: MPEG-4 AVC, 972x576, 2 104 kbps
Аудио: русский, не требуется, AC3 2.0, 192 kbps

Код:

General
Unique ID : 244979339978365035827334369133053758348 (0xB84D4DFE551C6970A0E2CA8D44724B8C)
Complete name : Ермак.1996.mkv
Format : Matroska
Format version : Version 2
File size : 2.12 GiB
Duration : 2 h 12 min
Overall bit rate : 2 298 kb/s
Encoded date : UTC 2021-01-09 12:32:25
Writing application : mkvmerge v7.8.0 ('River Man') 32bit built on Mar 27 2015 16:18:02
Writing library : libebml v1.3.1 + libmatroska v1.4.2

Video
ID : 1
Format : AVC
Format/Info : Advanced Video Codec
Format profile : High@L4.1
Format settings : CABAC / 14 Ref Frames
Format settings, CABAC : Yes
Format settings, ReFrames : 14 frames
Codec ID : V_MPEG4/ISO/AVC
Duration : 2 h 12 min
Bit rate : 2 104 kb/s
Width : 972 pixels
Height : 576 pixels
Display aspect ratio : 5:3
Frame rate mode : Constant
Frame rate : 25.000 FPS
Color space : YUV
Chroma subsampling : 4:2:0
Bit depth : 8 bits
Scan type : Progressive
Bits/(Pixel*Frame) : 0.150
Stream size : 1.90 GiB (90%)
Writing library : x264 core 158 r2984+49 6932f4a t_mod_New [0-bit@all X86]
Encoding settings : cabac=1 / ref=14 / deblock=1:-2:-2 / analyse=0x3:0x133 / me=umh / subme=10 / psy=1 / fade_compensate=0.00 / psy_rd=1.10:0.10 / mixed_ref=1 / me_range=32 / chroma_me=1 / trellis=2 / 8x8dct=1 / cqm=0 / deadzone=21,11 / fast_pskip=0 / chroma_qp_offset=-3 / threads=12 / lookahead_threads=3 / sliced_threads=0 / nr=0 / decimate=0 / interlaced=0 / bluray_compat=0 / constrained_intra=0 / fgo=0 / bframes=10 / b_pyramid=2 / b_adapt=2 / b_bias=0 / direct=3 / weightb=1 / open_gop=0 / weightp=2 / keyint=250 / keyint_min=25 / scenecut=40 / intra_refresh=0 / rc_lookahead=60 / rc=2pass / mbtree=0 / bitrate=2104 / ratetol=1.0 / qcomp=0.60 / qpmin=0:0:0 / qpmax=69:69:69 / qpstep=4 / cplxblur=20.0 / qblur=0.5 / vbv_maxrate=62500 / vbv_bufsize=78125 / nal_hrd=none / filler=0 / ip_ratio=1.35 / pb_ratio=1.30 / aq=1:0.80 / aq-sensitivity=10.00 / aq-factor=1.00:1.00:1.00 / aq2=0 / aq3=0
Language : Russian
Default : Yes
Forced : No
Color range : Limited
Color primaries : BT.709
Transfer characteristics : BT.709
Matrix coefficients : BT.709

Audio
ID : 2
Format : AC-3
Format/Info : Audio Coding 3
Codec ID : A_AC3
Duration : 2 h 12 min
Bit rate mode : Constant
Bit rate : 192 kb/s
Channel(s) : 2 channels
Channel positions : Front: L R
Sampling rate : 48.0 kHz
Frame rate : 31.250 FPS (1536 SPF)
Bit depth : 16 bits
Compression mode : Lossy
Stream size : 181 MiB (8%)
Language : Russian
Service kind : Complete Main
Default : Yes
Forced : No

Этот торрент недоступен для скачивания без регистрации, однако доступен по публичной magnet-ссылке (источники с публичных трекеров). Перед использованием ссылки прочтите, пожалуйста Пользовательское соглашение, а также как можно дольше оставайтесь на раздаче! Для того, чтобы скачать сам торрент-файл (который видит больше источников), а также для того, чтобы поблагодарить релизера, вам необходимо зарегистрироваться. Если регистрироваться лень - вы можете также попробовать скачать релиз по нашим партнерским ссылкам ниже. Кроме того, зарегистрированным пользователям не показывается всплывающая реклама при скачивании.

[underver.se].t195064.torrent
Трекер: Зарегистрирован   [ 13.01.2021 22:05 ]  

Статус: проверено (by 90ytr90 at 14.01.2021 07:39)
Поблагодарили: 1 человек
Тип торрента: публичный - доступные источники с открытых трекеров: 
Размер: 2,12 GB (занимает 0,48 DVDR, для записи нужно 1 болванка DVDR/RW)
 
 


Последний раз редактировалось: Parallelo (14.01.2021 05:35), всего редактировалось 1 раз

Яндекс.Метрика powered by Sphinx


В Н И М А Н И Е
Сайт не распространяет и не хранит электронные версии произведений, а лишь бесплатно и без коммерческой выгоды (не требуя взамен платы,
SMS и т.д.) предоставляет доступ к создаваемому пользователями каталогу ссылок на торрент-файлы, которые содержат только списки хеш-сумм.
Убедительная просьба с жалобами обращаться напрямую к пользователю, разместившему торрент файл.

Вверх