Loading...
Error

Нонна Мордюкова. Прости за любовь (Георгий Ананов) [2018, документальный, биография, WEB-DL 720p]

Статистика раздачи
Размер:  1,38 GB   |    Зарегистрирован:  1 месяц 26 дней   |    Скачан:  1 раз

Полного источника не было: 1 день 9 часов

Сидов:  0  |  0 KB/s  ]   Личеров:  0  |  0 KB/s  ]

* - сиды/пиры с внешних источников

   
 
Автор Сообщение

ARI71 Пол:Муж

26-Ноя-2020 11:50

Нонна Мордюкова. Прости за любовь


Страна: Россия
Студия: ООО "Контраст", Первый канал
Жанр: документальный, биография
Год выпуска: 2018
Продолжительность: 00:49:57
Режиссёр: Георгий Ананов
В ролях: Нонна Мордюкова, Вячеслав Тихонов, Римма Маркова, Людмила Мордюкова, Наталья Мордюкова, Анна Тихонова, Наталья Варлей, Елена Санаева, Никита Михалков, Нина Гребешкова, Инна Макарова, Виктор Мережко, Светлана Крючкова

Описание: Знаменитой и любимой миллионами актрисе Нонне Мордюковой была по плечу любая роль! Но в жизни ей так и не удались самые главные для женщины роли: счастливой жены и матери. В нашем фильме мы расскажем историю любви Нонны Мордюковой и Вячеслава Тихонова. Актриса признавалась, что Тихонов был самой большой ее любовью. Почему же они расстались? Кто был виноват? Как они переживали свой развод? И почему столь трагичной была судьба их общего единственного сына? Только в конце жизни Нонна Мордюкова и Вячеслав Тихонов поняли и простили друг друга. Актрису похоронили в одной могиле с сыном, который трагически умер в 40 лет. Через год ушел из жизни и Вячеслав Тихонов.

Качество видео: WEB-DL 720p
Формат видео: MKV

Видео: MPEG-4, 1280x720 (16:9), 25.000 fps, 3811 kbps, 0.165 bit/pixel
Аудио: Русский AAC, 48000 Гц, 2ch, 128 kbps
 
Общее
Уникальный идентификатор : 227897260084349386810334120186236948950 (0xAB736A6E3350CA0CC9644066F198D1D6)
Полное имя : Нонна.Мордюкова.Прости.меня.за.любовь.2018.WEB.720p-ylnian.mkv
Формат : Matroska
Версия формата : Version 4
Размер файла : 1,38 Гбайт
Продолжительность : 49 м. 57 с.
Общий поток : 3 942 Кбит/сек
Дата кодирования : UTC 2020-11-26 09:41:57
Программа кодирования : mkvmerge v51.0.0 ('I Wish') 64-bit
Библиотека кодирования : libebml v1.4.0 + libmatroska v1.6.2

Видео
Идентификатор : 1
Формат : AVC
Формат/Информация : Advanced Video Codec
Профиль формата : High@L3.1
Настройки формата : CABAC / 4 Ref Frames
Параметр CABAC формата : Да
Параметр RefFrames формата : 4 кадра
Идентификатор кодека : V_MPEG4/ISO/AVC
Продолжительность : 49 м. 57 с.
Битрейт : 3 811 Кбит/сек
Ширина : 1 280 пикселей
Высота : 720 пикселей
Соотношение сторон : 16:9
Режим частоты кадров : Постоянный
Частота кадров : 25,000 кадров/сек
Цветовое пространство : YUV
Субдискретизация насыщенности : 4:2:0
Битовая глубина : 8 бит
Тип развёртки : Прогрессивная
Бит/(Пиксели*Кадры) : 0.165
Размер потока : 1,33 Гбайт (97%)
Язык : Russian
Default : Да
Forced : Нет

Аудио
Идентификатор : 2
Формат : AAC LC
Формат/Информация : Advanced Audio Codec Low Complexity
Идентификатор кодека : A_AAC-2
Продолжительность : 49 м. 57 с.
Битрейт : 128 Кбит/сек
Каналы : 2 канала
Channel layout : L R
Частота : 48,0 КГц
Частота кадров : 46,875 кадров/сек (1024 SPF)
Метод сжатия : С потерями
Размер потока : 45,9 Мбайт (3%)
Язык : Russian
Default : Да
Forced : Нет

Этот торрент недоступен для скачивания без регистрации, однако доступен по публичной magnet-ссылке (источники с публичных трекеров). Перед использованием ссылки прочтите, пожалуйста Пользовательское соглашение, а также как можно дольше оставайтесь на раздаче! Для того, чтобы скачать сам торрент-файл (который видит больше источников), а также для того, чтобы поблагодарить релизера, вам необходимо зарегистрироваться. Если регистрироваться лень - вы можете также попробовать скачать релиз по нашим партнерским ссылкам ниже. Кроме того, зарегистрированным пользователям не показывается всплывающая реклама при скачивании.

[underver.se].t190404.torrent
Трекер: Зарегистрирован   [ 26.11.2020 11:50 ]  

Статус: проверено (by ARI71 at 26.11.2020 11:51)
Поблагодарили: пока никто не поблагодарил...
Тип торрента: публичный - доступные источники с открытых трекеров: 
Размер: 1,38 GB (занимает 0,31 DVDR, для записи нужно 1 болванка DVDR/RW)
 
 

Яндекс.Метрика powered by Sphinx


В Н И М А Н И Е
Сайт не распространяет и не хранит электронные версии произведений, а лишь бесплатно и без коммерческой выгоды (не требуя взамен платы,
SMS и т.д.) предоставляет доступ к создаваемому пользователями каталогу ссылок на торрент-файлы, которые содержат только списки хеш-сумм.
Убедительная просьба с жалобами обращаться напрямую к пользователю, разместившему торрент файл.

Вверх