Loading...
Error

Тебе стоило уйти / You Should Have Left (Дэвид Кепп) [2020, Ужасы, детектив, экранизация, BDRemux 1080p] Dub (iTunes) + MVO (HDRezka Studio) + Original + Sub (Rus/Eng)

Статистика раздачи
Размер:  26,14 GB   |    Зарегистрирован:  1 месяц 19 дней   |    Скачан:  4 раза

Полного источника не было: 1 месяц 3 дня

Сидов:  0  |  0 KB/s  ]   Личеров:  0  |  0 KB/s  ]

* - сиды/пиры с внешних источников

   
 
Автор Сообщение

Konin Пол:Муж

16-Окт-2020 19:10

Тебе стоило уйти / You Should Have Left

Год выхода: 2020
Страна: США
Студия: Blumhouse Productions
Продолжительность: 01:33:28
Жанр: Ужасы, детектив, экранизация
Перевод: #1: Дублированный | iTunes
Перевод: #2: Профессиональный многоголосый | HDRezka Studio
Режиссер:
Дэвид Кепп
В ролях:
Кевин Бэйкон, Аманда Сайфред, Колин Блюмено, Эли Пауэрс, Эйвери Тиу Эссекс, Лоури Энн Ричардс, Джошуа Си Джексон
О фильме:
Тео Конрой - обеспеченный бывший банкир на пенсии, чей брак с намного более молодой женой-актрисой, Сюзанной, трещит по швам из-за его ревности и мрачных теней в его прошлом. Стремясь наладить отношения, Тео и Сюзанна отправляются вместе с шестилетней дочкой Эллой отдохнуть в съемном загородном доме в Уэльсе. Однако вскоре после приезда Тео начинает подозревать, что некая зловещая сила в доме знает их с Сюзанной секреты даже лучше, чем они сами знают друг друга.

Качество: BDRemux 1080p
Формат: MKV
Видео: MPEG-4 AVC, 1920x1080, 35.7 Mbit/s, 23.976 fps
Аудио #01: 48 kHz, AC3, 5.1, 384 Kbps | iTunes | RUS |
Аудио #02: 48 kHz, AC3, 5.1, 448 Kbps | HDRezka Studio | RUS |
Аудио #03: 48 kHz, DTS-HD MA, 5.1, 3463 Kbps | Оригинал | ENG |
Субтитры: Русские (2 x Forced, Full), английские
General
Unique ID : 32240008258501106592834915243304358128 (0x18413321960D9DC9B6F79F7EA93710F0)
Complete name : D:Video111You.Should.Have.Left.2020.BDREMUX.1080p.seleZen.mkv
Format : Matroska
Format version : Version 4
File size : 26.1 GiB
Duration : 1 h 33 min
Overall bit rate mode : Variable
Overall bit rate : 40.0 Mb/s
Movie name : You Should Have Left 2020 from селезень
Encoded date : UTC 2020-10-16 14:21:11
Writing application : mkvmerge v40.0.0 ('Old Town Road + Pony') 64-bit
Writing library : libebml v1.3.9 + libmatroska v1.5.2
Video
ID : 1
Format : AVC
Format/Info : Advanced Video Codec
Format profile : High@L4.1
Format settings : CABAC / 2 Ref Frames
Format settings, CABAC : Yes
Format settings, Reference : 2 frames
Format settings, GOP : M=1, N=10
Codec ID : V_MPEG4/ISO/AVC
Duration : 1 h 33 min
Bit rate mode : Variable
Bit rate : 35.7 Mb/s
Width : 1 920 pixels
Height : 1 080 pixels
Display aspect ratio : 16:9
Frame rate mode : Constant
Frame rate : 23.976 (24000/1001) FPS
Color space : YUV
Chroma subsampling : 4:2:0
Bit depth : 8 bits
Scan type : Progressive
Bits/(Pixel*Frame) : 0.719
Stream size : 23.3 GiB (89%)
Language : English
Default : Yes
Forced : No
Audio #1
ID : 2
Format : AC-3
Format/Info : Audio Coding 3
Commercial name : Dolby Digital
Codec ID : A_AC3
Duration : 1 h 33 min
Bit rate mode : Constant
Bit rate : 384 kb/s
Channel(s) : 6 channels
Channel layout : L R C LFE Ls Rs
Sampling rate : 48.0 kHz
Frame rate : 31.250 FPS (1536 SPF)
Compression mode : Lossy
Stream size : 257 MiB (1%)
Title : Dub [iTunes]
Language : Russian
Service kind : Complete Main
Default : Yes
Forced : Yes
Audio #2
ID : 3
Format : AC-3
Format/Info : Audio Coding 3
Commercial name : Dolby Digital
Codec ID : A_AC3
Duration : 1 h 33 min
Bit rate mode : Constant
Bit rate : 448 kb/s
Channel(s) : 6 channels
Channel layout : L R C LFE Ls Rs
Sampling rate : 48.0 kHz
Frame rate : 31.250 FPS (1536 SPF)
Compression mode : Lossy
Stream size : 300 MiB (1%)
Title : MVO [HDRezka Studio]
Language : Russian
Service kind : Complete Main
Default : No
Forced : No
Audio #3
ID : 4
Format : DTS XLL
Format/Info : Digital Theater Systems
Commercial name : DTS-HD Master Audio
Codec ID : A_DTS
Duration : 1 h 33 min
Bit rate mode : Variable
Bit rate : 3 463 kb/s
Channel(s) : 6 channels
Channel layout : C L R Ls Rs LFE
Sampling rate : 48.0 kHz
Frame rate : 93.750 FPS (512 SPF)
Bit depth : 24 bits
Compression mode : Lossless
Stream size : 2.26 GiB (9%)
Title : Original
Language : English
Default : No
Forced : No
Text #1
ID : 5
Format : UTF-8
Codec ID : S_TEXT/UTF8
Codec ID/Info : UTF-8 Plain Text
Duration : 1 h 17 min
Bit rate : 1 b/s
Count of elements : 18
Stream size : 937 Bytes (0%)
Title : Forced [For iTunes]
Language : Russian
Default : Yes
Forced : Yes
Text #2
ID : 6
Format : UTF-8
Codec ID : S_TEXT/UTF8
Codec ID/Info : UTF-8 Plain Text
Duration : 1 h 26 min
Bit rate : 2 b/s
Count of elements : 35
Stream size : 1.39 KiB (0%)
Title : Forced [For HDRezka Studio]
Language : Russian
Default : No
Forced : No
Text #3
ID : 7
Format : UTF-8
Codec ID : S_TEXT/UTF8
Codec ID/Info : UTF-8 Plain Text
Duration : 1 h 31 min
Bit rate : 63 b/s
Count of elements : 854
Stream size : 42.3 KiB (0%)
Title : Full [iTunes]
Language : Russian
Default : No
Forced : No
Text #4
ID : 8
Format : UTF-8
Codec ID : S_TEXT/UTF8
Codec ID/Info : UTF-8 Plain Text
Duration : 1 h 29 min
Bit rate : 49 b/s
Count of elements : 1223
Stream size : 32.4 KiB (0%)
Title : SDH
Language : English
Default : No
Forced : No
Menu
00:00:00.000 : en:Chapter 1
00:04:48.580 : en:Chapter 2
00:07:12.057 : en:Chapter 3
00:12:00.887 : en:Chapter 4
00:17:07.777 : en:Chapter 5
00:23:32.578 : en:Chapter 6
00:28:58.612 : en:Chapter 7
00:32:40.917 : en:Chapter 8
00:39:53.766 : en:Chapter 9
00:44:55.902 : en:Chapter 10
00:47:13.914 : en:Chapter 11
00:49:41.687 : en:Chapter 12
00:54:14.543 : en:Chapter 13
01:00:14.236 : en:Chapter 14
01:04:02.630 : en:Chapter 15
01:08:27.228 : en:Chapter 16
01:13:05.298 : en:Chapter 17
01:18:15.357 : en:Chapter 18
01:24:11.338 : en:Chapter 19
01:27:47.971 : en:Chapter 20
Релиз:

Этот торрент недоступен для скачивания без регистрации, однако доступен по публичной magnet-ссылке (источники с публичных трекеров). Перед использованием ссылки прочтите, пожалуйста Пользовательское соглашение, а также как можно дольше оставайтесь на раздаче! Для того, чтобы скачать сам торрент-файл (который видит больше источников), а также для того, чтобы поблагодарить релизера, вам необходимо зарегистрироваться. Если регистрироваться лень - вы можете также попробовать скачать релиз по нашим партнерским ссылкам ниже. Кроме того, зарегистрированным пользователям не показывается всплывающая реклама при скачивании.

[underver.se].t185231.torrent
Трекер: Зарегистрирован   [ 16.10.2020 19:10 ]  

Статус: проверено (by 90ytr90 at 21.10.2020 21:13)
Поблагодарили: пока никто не поблагодарил...
Тип торрента: публичный - доступные источники с открытых трекеров: 
Размер: 26,14 GB (занимает 5,97 DVDR, для записи нужно 6 болванок DVDR/RW)
 
 
Похожие темы
Форум Тема Автор Торрент Отв. Посл. сооб.
T Зарубежное кино [DVDRip, Low-Res HDRip, и т.д.] Тебе стоило уйти / You Should Have Left (Дэвид Кепп) [2020 г., ужасы, детектив, WEB-DLRip] DVO (@MUZOBOZ@) makkol
37 | 2

0 | 417

10

20.06.2020 11:01

Зарубежное кино [DVDRip, Low-Res HDRip, и т.д.] Тебе стоило уйти / You Should Have Left (Дэвид Кепп) [2020 г., ужасы, детектив, экранизация, BDRip] Dub (iTunes) + Sub (Rus) eXtatik
85 | 5

0 | 178

6

16.10.2020 12:14

Зарубежное кино [DVDRip, Low-Res HDRip, и т.д.] Тебе стоило уйти / You Should Have Left (Дэвид Кепп / David Koepp) [2020 г., триллер, ужасы, BDRip-AVC] Dub (iTunes) + MVO (HDRezka Studio) + Original (Eng) + Sub (Rus, Eng) 90ytr90
11 | 1

0 | 155

1

17.10.2020 19:51

Зарубежное кино [DVDRip, Low-Res HDRip, и т.д.] Тебе стоило уйти / You Should Have Left (Дэвид Кепп / David Koepp) [2020 г., триллер, ужасы, BDRip] MVO (HDRezka Studio, без цензуры) + Sub (Rus) 90ytr90
2 | 0

0 | 162

1

17.10.2020 19:52

Зарубежное кино [DVDRip, Low-Res HDRip, и т.д.] Тебе стоило уйти / You Should Have Left (Дэвид Кепп / David Koepp) [2020 г., триллер, ужасы, BDRip-AVC] MVO (HDRezka Studio, без цензуры) + Sub (Rus, Eng) 90ytr90
2 | 0

0 | 197

4

17.10.2020 19:53

Зарубежное кино [DVDRip, Low-Res HDRip, и т.д.] Тебе стоило уйти / You Should Have Left (Дэвид Кепп / David Koepp) [2020 г., триллер, ужасы, HDRip] Dub (iTunes) + hardsub (Rus) 90ytr90
11 | 0

0 | 213

3

21.10.2020 21:28

Зарубежное кино [HDDVDRip / BDRip / WEB-DL / HDTV 1080/720р] Тебе стоило уйти / You Should Have Left (Дэвид Кепп / David Koepp) [2020 г., триллер, ужасы, WEB-DL 1080p] Dub (iTunes) + MVO (HDRezka Studio, без цензуры) + Original (Eng) + Sub (Rus, Eng) 90ytr90
62 | 3

0 | 189

12

10.10.2020 03:49

T Зарубежное кино [HDDVDRip / BDRip / WEB-DL / HDTV 1080/720р] Тебе стоило уйти / You Should Have Left (Дэвид Кепп) [2020 г., ужасы, детектив, WEB-DL 720p] DVO (@MUZOBOZ@) makkol
9 | 0

0 | 381

5

20.06.2020 11:08

T Зарубежное кино [HDDVDRip / BDRip / WEB-DL / HDTV 1080/720р] Тебе стоило уйти / You Should Have Left (Дэвид Кепп) [2020 г., ужасы, детектив, WEB-DL 1080p] DVO (@MUZOBOZ@) makkol
6 | 1

0 | 458

5

20.06.2020 11:12

Зарубежное кино [HDDVDRip / BDRip / WEB-DL / HDTV 1080/720р] Тебе стоило уйти / You Should Have Left (Дэвид Кепп) [2020, триллер, мистика, WEB-DLRip 720p] MVO (HDRezka Studio) + Original + hardsub (Rus) Konin
85 | 2

0 | 474

9

21.06.2020 20:10


Яндекс.Метрика powered by Sphinx


В Н И М А Н И Е
Сайт не распространяет и не хранит электронные версии произведений, а лишь бесплатно и без коммерческой выгоды (не требуя взамен платы,
SMS и т.д.) предоставляет доступ к создаваемому пользователями каталогу ссылок на торрент-файлы, которые содержат только списки хеш-сумм.
Убедительная просьба с жалобами обращаться напрямую к пользователю, разместившему торрент файл.

Вверх