Loading...
Error

Мумии Сицилии / Mummies Sicily [2008 г., документальный, история, научно-познавательный, HDTVRip] Dub

Статистика раздачи
Размер:  702 MB   |    Зарегистрирован:  2 года 1 месяц   |    Скачан:  0 раз
Сидов:  1  |  0 KB/s  ]   Личеров:  0  |  0 KB/s  ]

* - сиды/пиры с внешних источников

   
 
Автор Сообщение

ARI71 Пол:Муж

15-Авг-2020 05:52

Мумии Сицилии / Mummies Sicily


Год выпуска: 2008
Жанр: документальный, история, научно-познавательный
Страна: США National Geographic Television
Сюжет фильма:
Катакомбы капуцинов - погребальные катакомбы, расположенные в городе Палермо на Сицилии, в которых в открытом виде покоятся останки более восьми тысяч человек - местной элиты и выдающихся граждан: духовенства, аристократии и представителей различных профессий. Это одна из самых знаменитых выставок мумий - скелетированные, мумифицированные, забальзамированные тела усопших лежат, стоят, висят, образуют композиции. Одним из шедевров является сицилийская спящая красавица Розалия Ломбардо – мумифицированное тело 2-х летней девочки, умершей от воспаления лёгких. Отец Розалии, тяжело переживавший её смерть, обратился к известному бальзамировщику доктору Альфредо Салафии с просьбой сохранить тело дочери от тления. Захоронение Розалии Ломбардо стало одним из последних в истории катакомб капуцинов в Палермо. В этом фильме итальянский ученый Дарио Пиомбино-Маскали берется за расследование этих таинственных захоронений мумий.
Качество видео: HDTVRip

Продолжительность: 00:50:07
Формат: AVI
Видео: XviD, 704x384, 1755 kbps
Аудио: русский, дублированный, AC3 2.0, 192 kbps

Код:

Общее
Полное имя : D:\Mumii.Sitsilii.2008.XviD.HDTVRip.Fandorin.avi
Формат : AVI
Формат/Информация : Audio Video Interleave
Размер файла : 702 Мбайт
Продолжительность : 50 м. 7 с.
Общий поток : 1957 Кбит/сек
Программа кодирования : VirtualDubMod 1.5.10.2 (build 2540/release)
Библиотека кодирования : VirtualDubMod build 2540/release

Видео
Идентификатор : 0
Формат : MPEG-4 Visual
Профиль формата : Advanced [email protected]
Настройки формата : BVOP2
Параметр BVOP формата : 2
Параметр QPel формата : Нет
Параметр GMC формата : Без точки перехода
Параметр матрицы формата : Default (H.263)
Идентификатор кодека : XVID
Идентификатор кодека/Подсказка : XviD
Продолжительность : 50 м. 7 с.
Битрейт : 1755 Кбит/сек
Ширина : 704 пикселя
Высота : 384 пикселя
Соотношение сторон : 1,85:1
Частота кадров : 25,000 кадров/сек
Цветовое пространство : YUV
Субдискретизация насыщенности : 4:2:0
Битовая глубина : 8 бит
Тип развёртки : Прогрессивная
Метод сжатия : С потерями
Бит/(Пиксели*Кадры) : 0.260
Размер потока : 629 Мбайт (90%)
Библиотека кодирования : XviD 1.2.0.dev47 (UTC 2006-11-01)

Аудио
Идентификатор : 1
Формат : AC-3
Формат/Информация : Audio Coding 3
Коммерческое название : Dolby Digital
Идентификатор кодека : 2000
Продолжительность : 50 м. 7 с.
Вид битрейта : Постоянный
Битрейт : 192 Кбит/сек
Каналы : 2 канала
Channel layout : L R
Частота : 48,0 КГц
Частота кадров : 31,250 кадров/сек (1536 SPF)
Битовая глубина : 16 бит
Метод сжатия : С потерями
Размер потока : 68,8 Мбайт (10%)
Выравнивание : Разделение по промежуткам
Продолжительность промежутка : 40 мс. (1,00 видеокадр)
Время предзагрузки промежутка : 500 мс.
ServiceKind/String : Complete Main

Этот торрент недоступен для скачивания без регистрации, однако доступен по публичной magnet-ссылке (источники с публичных трекеров). Перед использованием ссылки прочтите, пожалуйста Пользовательское соглашение, а также как можно дольше оставайтесь на раздаче! Для того, чтобы скачать сам торрент-файл (который видит больше источников), а также для того, чтобы поблагодарить релизера, вам необходимо зарегистрироваться. Если регистрироваться лень - вы можете также попробовать скачать релиз по нашим партнерским ссылкам ниже. Кроме того, зарегистрированным пользователям не показывается всплывающая реклама при скачивании.

[underver.se].t177054.torrent
Трекер: Зарегистрирован   [ 15.08.2020 05:52 ]  
Статус: проверено (by ARI71 at 15.08.2020 05:53)
Поблагодарили: пока никто не поблагодарил...
Тип торрента: публичный - доступные источники с открытых трекеров: 
Размер: 702 MB (занимает 0.16 DVDR, для записи нужно 1 болванка DVDR/RW)
 
 

Яндекс.Метрика powered by Sphinx


В Н И М А Н И Е
Сайт не распространяет и не хранит электронные версии произведений, а лишь бесплатно и без коммерческой выгоды (не требуя взамен платы,
SMS и т.д.) предоставляет доступ к создаваемому пользователями каталогу ссылок на торрент-файлы, которые содержат только списки хеш-сумм.
Убедительная просьба с жалобами обращаться напрямую к пользователю, разместившему торрент файл.

Вверх