Loading...
Error

Зёма / Сезон: 1-2 / Серии: 1-16 из 16 (Семён Молоканов, Антон Просвирнин, Алексей Смирнов) [2016, Комедия, WEBRip 1080p]

Статистика раздачи
Размер:  7,88 GB   |    Зарегистрирован:  9 дней   |    Скачан:  1 раз

Полного источника не было: 8 дней

Сидов:  0  |  0 KB/s  ]   Личеров:  0  |  0 KB/s  ]

* - сиды/пиры с внешних источников

   
 
Автор Сообщение

Konin Пол:Муж

30-Июн-2020 13:14

Зёма

Год выпуска: 2016
Производство: Россия, ПЕНЗФИЛЬММАШ
Жанр: Комедия
Продолжительность: ~ 00:15:00
Перевод: Не требуется
Режиссёр:
Семён Молоканов, Антон Просвирнин, Алексей Смирнов
В ролях:
Семён Молоканов, Мила Сайфутдинова, Артём Бординов, Денис Сундуков, Николай Корчагин, Павел Тачков, Олег Тифанов, Алексей Панин
Описание:
На вечеринке Мила не может найти своего молодого человека. Неожиданно она встречает его в туалете – целующимся с другим парнем. Расстроенная девушка уезжает на такси, где знакомится с дворовым пацаном Зёмой. Но как бедный и необразованный парнишка сможет покорить красавицу из золотой молодежи? Получится ли у него измениться ради любви?
Версия 18+. Внимание! Присутствует не нормативная лексика.


Качество: WEBRip 1080p
Формат: MKV
Видео кодек: H.264
Аудио кодек: AC3
Видео: MPEG4 AVC Video, H264, 16:9, 1920x1080, 25 fps, ~5000 kbps, 0.096 bit/pixel
Аудио: AC3, 2 ch, 192 kbps, 16 bits, 48.0 KHz
Субтитры: Нет
General
Unique ID : 184353002038044000191458925913252594447 (0x8AB118C1164ACBA18F67B8BA4540830F)
Complete name : C:Zema.01.01.WEB-DL.1080p.ExKinoRay.mkv
Format : Matroska
File size : 360 MiB
Duration : 9mn 30s
Overall bit rate : 5 297 Kbps
Movie name : Зёма 01.01 from ExKinoRay
Encoded date : UTC 2020-06-27 01:38:24
Writing application : mkvmerge v5.6.0 ('Kenya Kane') built on May 27 2012 16:44:04
Writing library : libebml v1.2.3 + libmatroska v1.3.0

Video
ID : 1
Format : AVC
Format/Info : Advanced Video Codec
Format profile : High@L4.0
Format settings, CABAC : Yes
Format settings, ReFrames : 4 frames
Format settings, GOP : M=1, N=50
Codec ID : V_MPEG4/ISO/AVC
Duration : 9mn 30s
Bit rate : 5 000 Kbps
Width : 1 920 pixels
Height : 1 080 pixels
Display aspect ratio : 16:9
Frame rate mode : Variable
Frame rate : 25.000 fps
Color space : YUV
Chroma subsampling : 4:2:0
Bit depth : 8 bits
Scan type : Progressive
Bits/(Pixel*Frame) : 0.096
Stream size : 340 MiB (94%)

Audio
ID : 2
Format : AC-3
Format/Info : Audio Coding 3
Mode extension : CM (complete main)
Codec ID : A_AC3
Duration : 9mn 30s
Bit rate mode : Constant
Bit rate : 192 Kbps
Channel(s) : 2 channels
Channel positions : Front: L R
Sampling rate : 48.0 KHz
Bit depth : 16 bits
Compression mode : Lossy
Delay relative to video : -200ms
Stream size : 13.1 MiB (4%)
Language : Russian

Этот торрент недоступен для скачивания без регистрации, однако доступен по публичной magnet-ссылке (источники с публичных трекеров). Перед использованием ссылки прочтите, пожалуйста Пользовательское соглашение, а также как можно дольше оставайтесь на раздаче! Для того, чтобы скачать сам торрент-файл (который видит больше источников), а также для того, чтобы поблагодарить релизера, вам необходимо зарегистрироваться. Если регистрироваться лень - вы можете также попробовать скачать релиз по нашим партнерским ссылкам ниже. Кроме того, зарегистрированным пользователям не показывается всплывающая реклама при скачивании.

[underver.se].t172785.torrent
Трекер: Зарегистрирован   [ 30.06.2020 13:14 ]  

Статус: проверено (by makkol at 30.06.2020 21:42)
Поблагодарили: пока никто не поблагодарил...
Тип торрента: публичный - доступные источники с открытых трекеров: 
Размер: 7,88 GB (занимает 1,8 DVDR, для записи нужно 2 болванки DVDR/RW)
 
 
Похожие темы
Форум Тема Автор Торрент Отв. Посл. сооб.
xUSSR сериалы Зёма / Сезон: 1-2 / Серии: 1-16 из 16 (Семён Молоканов, Антон Просвирнин, Алексей Смирнов) [2016, Комедия, WEBRip] Konin
97 | 12

0 | 236

5

30.06.2020 13:13


Яндекс.Метрика powered by Sphinx


В Н И М А Н И Е
Сайт не распространяет и не хранит электронные версии произведений, а лишь бесплатно и без коммерческой выгоды (не требуя взамен платы,
SMS и т.д.) предоставляет доступ к создаваемому пользователями каталогу ссылок на торрент-файлы, которые содержат только списки хеш-сумм.
Убедительная просьба с жалобами обращаться напрямую к пользователю, разместившему торрент файл.

Вверх