Loading...
Error

Зёма / Сезон: 1-2 / Серии: 1-16 из 16 (Семён Молоканов, Антон Просвирнин, Алексей Смирнов) [2016, Комедия, WEBRip]

Статистика раздачи
Размер:  2,67 GB   |    Зарегистрирован:  14 дней   |    Скачан:  5 раз

Полного источника не было: 5 дней

Сидов:  0  |  0 KB/s  ]   Личеров:  0  |  0 KB/s  ]

* - сиды/пиры с внешних источников

   
 
Автор Сообщение

Konin Пол:Муж

30-Июн-2020 13:13

Зёма

Год выпуска: 2016
Производство: Россия, ПЕНЗФИЛЬММАШ
Жанр: Комедия
Продолжительность: ~ 00:15:00
Перевод: Не требуется
Режиссёр:
Семён Молоканов, Антон Просвирнин, Алексей Смирнов
В ролях:
Семён Молоканов, Мила Сайфутдинова, Артём Бординов, Денис Сундуков, Николай Корчагин, Павел Тачков, Олег Тифанов, Алексей Панин
Описание:
На вечеринке Мила не может найти своего молодого человека. Неожиданно она встречает его в туалете – целующимся с другим парнем. Расстроенная девушка уезжает на такси, где знакомится с дворовым пацаном Зёмой. Но как бедный и необразованный парнишка сможет покорить красавицу из золотой молодежи? Получится ли у него измениться ради любви?
Версия 18+. Внимание! Присутствует не нормативная лексика.


Качество: WEBRip
Формат: AVI
Видео кодек: XviD
Аудио кодек: AC3
Видео: 720x320 (2.25:1), 25 fps, XviD, ~1600 kbps avg, 0.278 bit/pixe (1 сезон)
Видео: 720x304 (2.35:1), 25 fps, XviD, ~1600 kbps avg, 0.292 bit/pixe (2 сезон)
Аудио: AC3, 2 ch, 192 kbps, 16 bits, 48.0 KHz
Субтитры: Нет
General
Complete name : C:Зёма..01.01.WEB-DLRip.Files-x.avi
Format : AVI
Format/Info : Audio Video Interleave
File size : 123 MiB
Duration : 9mn 30s
Overall bit rate : 1 801 Kbps
Writing application : VirtualDubMod 1.5.10.3 | www.virtualdub-fr.org || (build 2550/release)
Writing library : VirtualDubMod build 2550/release

Video
ID : 0
Format : MPEG-4 Visual
Format profile : Advanced Simple@L5
Format settings, BVOP : 1
Format settings, QPel : No
Format settings, GMC : No warppoints
Format settings, Matrix : Custom
Codec ID : XVID
Codec ID/Hint : XviD
Duration : 9mn 30s
Bit rate : 1 600 Kbps
Width : 720 pixels
Height : 320 pixels
Display aspect ratio : 2.25:1
Frame rate : 25.000 fps
Color space : YUV
Chroma subsampling : 4:2:0
Bit depth : 8 bits
Scan type : Progressive
Compression mode : Lossy
Bits/(Pixel*Frame) : 0.278
Stream size : 109 MiB (89%)
Writing library : XviD 73

Audio
ID : 1
Format : AC-3
Format/Info : Audio Coding 3
Mode extension : CM (complete main)
Codec ID : 2000
Duration : 9mn 30s
Bit rate mode : Constant
Bit rate : 192 Kbps
Channel(s) : 2 channels
Channel positions : Front: L R
Sampling rate : 48.0 KHz
Bit depth : 16 bits
Compression mode : Lossy
Stream size : 13.1 MiB (11%)
Alignment : Split accross interleaves
Interleave, duration : 40 ms (1.00 video frame)
Interleave, preload duration : 500 ms
General
Complete name : C:Зёма..02.01.WEB-DLRip.Files-x.avi
Format : AVI
Format/Info : Audio Video Interleave
File size : 232 MiB
Duration : 18mn 0s
Overall bit rate : 1 801 Kbps
Writing application : VirtualDubMod 1.5.10.3 | www.virtualdub-fr.org || (build 2550/release)
Writing library : VirtualDubMod build 2550/release

Video
ID : 0
Format : MPEG-4 Visual
Format profile : Advanced Simple@L5
Format settings, BVOP : 1
Format settings, QPel : No
Format settings, GMC : No warppoints
Format settings, Matrix : Custom
Codec ID : XVID
Codec ID/Hint : XviD
Duration : 18mn 0s
Bit rate : 1 599 Kbps
Width : 720 pixels
Height : 304 pixels
Display aspect ratio : 2.35:1
Frame rate : 25.000 fps
Color space : YUV
Chroma subsampling : 4:2:0
Bit depth : 8 bits
Scan type : Progressive
Compression mode : Lossy
Bits/(Pixel*Frame) : 0.292
Stream size : 206 MiB (89%)
Writing library : XviD 73

Audio
ID : 1
Format : AC-3
Format/Info : Audio Coding 3
Mode extension : CM (complete main)
Codec ID : 2000
Duration : 18mn 0s
Bit rate mode : Constant
Bit rate : 192 Kbps
Channel(s) : 2 channels
Channel positions : Front: L R
Sampling rate : 48.0 KHz
Bit depth : 16 bits
Compression mode : Lossy
Stream size : 24.7 MiB (11%)
Alignment : Split accross interleaves
Interleave, duration : 40 ms (1.00 video frame)
Interleave, preload duration : 500 ms

Этот торрент недоступен для скачивания без регистрации, однако доступен по публичной magnet-ссылке (источники с публичных трекеров). Перед использованием ссылки прочтите, пожалуйста Пользовательское соглашение, а также как можно дольше оставайтесь на раздаче! Для того, чтобы скачать сам торрент-файл (который видит больше источников), а также для того, чтобы поблагодарить релизера, вам необходимо зарегистрироваться. Если регистрироваться лень - вы можете также попробовать скачать релиз по нашим партнерским ссылкам ниже. Кроме того, зарегистрированным пользователям не показывается всплывающая реклама при скачивании.

[underver.se].t172784.torrent
Трекер: Зарегистрирован   [ 30.06.2020 13:13 ]  

Статус: проверено (by makkol at 30.06.2020 21:41)
Поблагодарили: 1 человек
Тип торрента: публичный - доступные источники с открытых трекеров: 
Размер: 2,67 GB (занимает 0,61 DVDR, для записи нужно 1 болванка DVDR/RW)
 
 
Похожие темы
Форум Тема Автор Торрент Отв. Посл. сооб.
xUSSR сериалы [BD / Remux / BDRip / WEB-DL / HDTV 1080/720р] Зёма / Сезон: 1-2 / Серии: 1-16 из 16 (Семён Молоканов, Антон Просвирнин, Алексей Смирнов) [2016, Комедия, WEBRip 1080p] Konin
73 | 28

0 | 245

1

30.06.2020 13:14


Яндекс.Метрика powered by Sphinx


В Н И М А Н И Е
Сайт не распространяет и не хранит электронные версии произведений, а лишь бесплатно и без коммерческой выгоды (не требуя взамен платы,
SMS и т.д.) предоставляет доступ к создаваемому пользователями каталогу ссылок на торрент-файлы, которые содержат только списки хеш-сумм.
Убедительная просьба с жалобами обращаться напрямую к пользователю, разместившему торрент файл.

Вверх