Loading...
Error

Тебе стоило уйти / You Should Have Left (Дэвид Кепп) [2020, триллер, мистика, WEB-DLRip 720p] MVO (HDRezka Studio) + Original + hardsub (Rus)

Статистика раздачи
Размер:  2,43 GB   |    Зарегистрирован:  5 месяцев 13 дней   |    Скачан:  9 раз
Сидов:  1  |  2 KB/s  ]   Личеров:  0  |  0 KB/s  ]

* - сиды/пиры с внешних источников

   
 
Автор Сообщение

Konin Пол:Муж

21-Июн-2020 20:10

Тебе стоило уйти / You Should Have Left

Год выхода: 2020
Страна: США
Студия: Blumhouse Productions
Жанр: триллер, мистика
Продолжительность: 01:33:28
Перевод: Профессиональный многоголосый, закадровый [HDRezka Studio]
Режиссер:
Дэвид Кепп
В ролях:
Кевин Бэйкон, Аманда Сайфред, Колин Блюмено, Эли Пауэрс, Эйвери Тиу Эссекс, Лоури Энн Ричардс, Джошуа Си Джексон
О фильме:
Тео Конрой - обеспеченный бывший банкир на пенсии, чей брак с намного более молодой женой-актрисой, Сюзанной, трещит по швам из-за его ревности и мрачных теней в его прошлом. Стремясь наладить отношения, Тео и Сюзанна отправляются вместе с шестилетней дочкой Эллой отдохнуть в съемном загородном доме в Уэльсе. Однако вскоре после приезда Тео начинает подозревать, что некая зловещая сила в доме знает их с Сюзанной секреты даже лучше, чем они сами знают друг друга.
ПРИСУТСТВУЕТ НЕНОРМАТИВНАЯ ЛЕКСИКА


Качество: WEB-DLRip 720p
Формат: MKV
Видео: MPEG-4 AVC, 1280x692 (1.85:1), 23.976 fps ~ 3195 Kbps
Звук: AC3, 48 KHz, 6 ch ~ 448 Kb/s
Субтитры: русские (hardsub) - на надписи и сообщения
General
Unique ID : 241902113758150589048090862692163110340 (0xB5FCA706F2333010B80630593897C5C4)
Complete name : J:wotYou.Should.Have.Left.2020.720p.HDREZKA.STUDIO.mkv
Format : Matroska
Format version : Version 4 / Version 2
File size : 2.43 GiB
Duration : 1h 33mn
Overall bit rate mode : Variable
Overall bit rate : 3 717 Kbps
Encoded date : UTC 2020-06-21 19:34:08
Writing application : mkvmerge v7.7.0 ('Six Voices') 32bit built on Feb 28 2015 23:23:00
Writing library : libebml v1.3.1 + libmatroska v1.4.2
_STATISTICS_WRITING_APP : mkvmerge v7.7.0 ('Six Voices') 32bit built on Feb 28 2015 23:23:00
_STATISTICS_WRITING_DATE_UTC : 2020-06-21 19:34:08
_STATISTICS_TAGS : BPS DURATION NUMBER_OF_FRAMES NUMBER_OF_BYTES
DURATION : 01:33:28.896000000
NUMBER_OF_FRAMES : 175278
NUMBER_OF_BYTES : 314098176
Video
ID : 1
Format : AVC
Format/Info : Advanced Video Codec
Format profile : High@L4.1
Format settings, CABAC : Yes
Format settings, ReFrames : 1 frame
Codec ID : V_MPEG4/ISO/AVC
Duration : 1h 33mn
Bit rate mode : Variable
Bit rate : 3 195 Kbps
Maximum bit rate : 2 000 Kbps
Width : 1 280 pixels
Height : 692 pixels
Display aspect ratio : 1.85:1
Frame rate mode : Constant
Frame rate : 23.976 fps
Color space : YUV
Chroma subsampling : 4:2:0
Bit depth : 8 bits
Scan type : Progressive
Bits/(Pixel*Frame) : 0.150
Stream size : 2.09 GiB (86%)
Language : English
Default : Yes
Forced : No
Audio
ID : 2
Format : AC-3
Format/Info : Audio Coding 3
Mode extension : CM (complete main)
Format settings, Endianness : Big
Codec ID : A_AC3
Duration : 1h 33mn
Bit rate mode : Constant
Bit rate : 448 Kbps
Channel(s) : 6 channels
Channel positions : Front: L C R, Side: L R, LFE
Sampling rate : 48.0 KHz
Compression mode : Lossy
Delay relative to video : 8ms
Stream size : 300 MiB (12%)
Title : hdrezka 5.1
Language : Russian
Default : Yes
Forced : No

Этот торрент недоступен для скачивания без регистрации, однако доступен по публичной magnet-ссылке (источники с публичных трекеров). Перед использованием ссылки прочтите, пожалуйста Пользовательское соглашение, а также как можно дольше оставайтесь на раздаче! Для того, чтобы скачать сам торрент-файл (который видит больше источников), а также для того, чтобы поблагодарить релизера, вам необходимо зарегистрироваться. Если регистрироваться лень - вы можете также попробовать скачать релиз по нашим партнерским ссылкам ниже. Кроме того, зарегистрированным пользователям не показывается всплывающая реклама при скачивании.

[underver.se].t171795.torrent
Трекер: Зарегистрирован   [ 21.06.2020 20:10 ]  

Статус: проверено (by 90ytr90 at 21.06.2020 20:40)
Поблагодарили: пока никто не поблагодарил...
Тип торрента: публичный - доступные источники с открытых трекеров: 
Размер: 2,43 GB (занимает 0,55 DVDR, для записи нужно 1 болванка DVDR/RW)
 
 
Похожие темы
Форум Тема Автор Торрент Отв. Посл. сооб.
T Зарубежное кино [DVDRip, Low-Res HDRip, и т.д.] Тебе стоило уйти / You Should Have Left (Дэвид Кепп) [2020 г., ужасы, детектив, WEB-DLRip] DVO (@MUZOBOZ@) makkol
37 | 2

0 | 417

10

20.06.2020 11:01

Зарубежное кино [DVDRip, Low-Res HDRip, и т.д.] Тебе стоило уйти / You Should Have Left (Дэвид Кепп) [2020 г., ужасы, детектив, экранизация, BDRip] Dub (iTunes) + Sub (Rus) eXtatik
85 | 5

0 | 178

6

16.10.2020 12:14

Зарубежное кино [DVDRip, Low-Res HDRip, и т.д.] Тебе стоило уйти / You Should Have Left (Дэвид Кепп / David Koepp) [2020 г., триллер, ужасы, BDRip-AVC] Dub (iTunes) + MVO (HDRezka Studio) + Original (Eng) + Sub (Rus, Eng) 90ytr90
11 | 1

0 | 155

1

17.10.2020 19:51

Зарубежное кино [DVDRip, Low-Res HDRip, и т.д.] Тебе стоило уйти / You Should Have Left (Дэвид Кепп / David Koepp) [2020 г., триллер, ужасы, BDRip] MVO (HDRezka Studio, без цензуры) + Sub (Rus) 90ytr90
2 | 0

0 | 162

1

17.10.2020 19:52

Зарубежное кино [DVDRip, Low-Res HDRip, и т.д.] Тебе стоило уйти / You Should Have Left (Дэвид Кепп / David Koepp) [2020 г., триллер, ужасы, BDRip-AVC] MVO (HDRezka Studio, без цензуры) + Sub (Rus, Eng) 90ytr90
2 | 0

0 | 197

4

17.10.2020 19:53

Зарубежное кино [DVDRip, Low-Res HDRip, и т.д.] Тебе стоило уйти / You Should Have Left (Дэвид Кепп / David Koepp) [2020 г., триллер, ужасы, HDRip] Dub (iTunes) + hardsub (Rus) 90ytr90
11 | 0

0 | 213

3

21.10.2020 21:28

Зарубежное кино [DVD / HDDVD / BD / Remux] Тебе стоило уйти / You Should Have Left (Дэвид Кепп) [2020, Ужасы, детектив, экранизация, BDRemux 1080p] Dub (iTunes) + MVO (HDRezka Studio) + Original + Sub (Rus/Eng) Konin
19 | 3

0 | 197

4

16.10.2020 19:10

Зарубежное кино [HDDVDRip / BDRip / WEB-DL / HDTV 1080/720р] Тебе стоило уйти / You Should Have Left (Дэвид Кепп / David Koepp) [2020 г., триллер, ужасы, WEB-DL 1080p] Dub (iTunes) + MVO (HDRezka Studio, без цензуры) + Original (Eng) + Sub (Rus, Eng) 90ytr90
62 | 3

0 | 188

12

10.10.2020 03:49

T Зарубежное кино [HDDVDRip / BDRip / WEB-DL / HDTV 1080/720р] Тебе стоило уйти / You Should Have Left (Дэвид Кепп) [2020 г., ужасы, детектив, WEB-DL 720p] DVO (@MUZOBOZ@) makkol
9 | 0

0 | 381

5

20.06.2020 11:08

T Зарубежное кино [HDDVDRip / BDRip / WEB-DL / HDTV 1080/720р] Тебе стоило уйти / You Should Have Left (Дэвид Кепп) [2020 г., ужасы, детектив, WEB-DL 1080p] DVO (@MUZOBOZ@) makkol
6 | 1

0 | 458

5

20.06.2020 11:12


Яндекс.Метрика powered by Sphinx


В Н И М А Н И Е
Сайт не распространяет и не хранит электронные версии произведений, а лишь бесплатно и без коммерческой выгоды (не требуя взамен платы,
SMS и т.д.) предоставляет доступ к создаваемому пользователями каталогу ссылок на торрент-файлы, которые содержат только списки хеш-сумм.
Убедительная просьба с жалобами обращаться напрямую к пользователю, разместившему торрент файл.

Вверх