Loading...
Error

BTS • World Tour Love Yourself: Sprak Yourself [The Final][2019, K-Pop, HDTV, 1080i]

Статистика раздачи
Размер:  23.04 GB   |    Зарегистрирован:  2 года 10 месяцев   |    Скачан:  1 раз

Полного источника не было: 1 месяц 7 дней

Сидов:  0  |  0 KB/s  ]   Личеров:  0  |  0 KB/s  ]

* - сиды/пиры с внешних источников

   
 
Автор Сообщение

Inspektor_49 Пол:Муж

07-Ноя-2019 13:14



FEED
Жанр: K-Pop
Продолжительность: 03:09:50
Год выпуска: October 27, 2019
Качество: HDTV
Разрешение видео/развертка: 1080i
Контейнер: TS
Видео кодек: H.264
Аудио кодек: MP2
Видео: MPEG4 Video (H264) 1920x1080 29.97fps 16.1 Mb/s
Аудио: MPEG Audio 48000Hz stereo 384kbps
October 27, 2019
Olympic Stadium, Seoul, South Korea


Dionysus
Not Today
Outro: Wings
Trivia: Just Dance
Euphoria
Best of Me
Serendipity
Trivia: Love
Boy With Luv
Dope
Silver Spoon
Fire
Singularity
FAKE LOVE
Trivia: Seesaw
Epiphany
The Truth Untold
Outro: Tear
MIC Drop
IDOL
Anpanman
So What
Make It Right
Mikrokosmos
 
General
ID : 1 (0x1)
Complete name : F:\BTS - World Tour Love Yourself - Sprak Yourself [The Final] 2019.ts
Format : MPEG-TS
File size : 23.0 GiB
Duration : 3 h 9 min
Overall bit rate mode : Variable
Overall bit rate : 17.4 Mb/s

Video
ID : 512 (0x200)
Menu ID : 1 (0x1)
Format : AVC
Format/Info : Advanced Video Codec
Format profile : [email protected]
Format settings : CABAC / 2 Ref Frames
Format settings, CABAC : Yes
Format settings, Reference fra : 2 frames
Format settings, GOP : M=3, N=15
Codec ID : 27
Duration : 3 h 9 min
Bit rate mode : Variable
Bit rate : 16.1 Mb/s
Maximum bit rate : 16.5 Mb/s
Width : 1 920 pixels
Height : 1 080 pixels
Display aspect ratio : 16:9
Frame rate : 29.970 (30000/1001) FPS
Color space : YUV
Chroma subsampling : 4:2:0
Bit depth : 8 bits
Scan type : Interlaced
Scan type, store method : Separated fields
Scan order : Top Field First
Bits/(Pixel*Frame) : 0.260
Stream size : 21.4 GiB (93%)
Color range : Limited
Color primaries : BT.709
Transfer characteristics : BT.709
Matrix coefficients : BT.709

Audio
ID : 4112 (0x1010)
Menu ID : 1 (0x1)
Format : MPEG Audio
Format version : Version 1
Format profile : Layer 2
Codec ID : 3
Duration : 3 h 9 min
Bit rate mode : Constant
Bit rate : 384 kb/s
Channel(s) : 2 channels
Sampling rate : 48.0 kHz
Frame rate : 41.667 FPS (1152 SPF)
Compression mode : Lossy
Stream size : 521 MiB (2%)
Language : English

Этот торрент недоступен для скачивания без регистрации, однако доступен по публичной magnet-ссылке (источники с публичных трекеров). Перед использованием ссылки прочтите, пожалуйста Пользовательское соглашение, а также как можно дольше оставайтесь на раздаче! Для того, чтобы скачать сам торрент-файл (который видит больше источников), а также для того, чтобы поблагодарить релизера, вам необходимо зарегистрироваться. Если регистрироваться лень - вы можете также попробовать скачать релиз по нашим партнерским ссылкам ниже. Кроме того, зарегистрированным пользователям не показывается всплывающая реклама при скачивании.

[underver.se].t149974.torrent
Трекер: Зарегистрирован   [ 07.11.2019 13:14 ]  
Статус: проверено (by eXtatik at 08.11.2019 09:28)
Поблагодарили: пока никто не поблагодарил...
Тип торрента: публичный - доступные источники с открытых трекеров: 
Размер: 23.04 GB (занимает 5.26 DVDR, для записи нужно 6 болванок DVDR/RW)
 
 

Яндекс.Метрика powered by Sphinx


В Н И М А Н И Е
Сайт не распространяет и не хранит электронные версии произведений, а лишь бесплатно и без коммерческой выгоды (не требуя взамен платы,
SMS и т.д.) предоставляет доступ к создаваемому пользователями каталогу ссылок на торрент-файлы, которые содержат только списки хеш-сумм.
Убедительная просьба с жалобами обращаться напрямую к пользователю, разместившему торрент файл.

Вверх