Loading...
Error

(Rock & Roll, Pop Rock) Браво - Unrealised (2018) [FLAC (Image+.Cue), Lossless]

Статистика раздачи
Размер:  534 MB   |    Зарегистрирован:  3 года 1 месяц   |    Скачан:  5 раз

Полного источника не было: 43 минуты

Сидов:  0  |  0 KB/s  ]   Личеров:  0  |  0 KB/s  ]

* - сиды/пиры с внешних источников

   
 
Автор Сообщение

Бишеп Пол:Муж

18-Авг-2019 09:59

Браво - Unrealised

Жанр: Rock & Roll, Pop Rock
Год выпуска: 2018
Носитель: CD
Производитель диска: Soyuz Music - SZCD 4281-18
Аудиокодек: FLAC
Тип рипа: Image+.CUE
Битрейт аудио: lossless
Продолжительность: 00:40:17


Треклист:
01. Наш дом (3:33)
02. Blues de Moscou (1:56)
03. Тишина (5:10)
04. Замок из песка (4:51)
05. Навсегда (3:38)
06. Буги-автостоп (4:22)
07. Полет (4:01)
08. Любовь не горит (3:45)
09. На планете Гамма (8:37)

Exact Audio Copy V1.0 beta 3 from 29. August 2011 

EAC extraction logfile from 6. December 2018, 0:17

Браво / Unrealised

Used drive : ASUS BW-16D1HT Adapter: 2 ID: 0

Read mode : Secure
Utilize accurate stream : Yes
Defeat audio cache : Yes
Make use of C2 pointers : No

Read offset correction : 6
Overread into Lead-In and Lead-Out : No
Fill up missing offset samples with silence : Yes
Delete leading and trailing silent blocks : No
Null samples used in CRC calculations : Yes
Used interface : Native Win32 interface for Win NT & 2000

Used output format : User Defined Encoder
Selected bitrate : 128 kBit/s
Quality : High
Add ID3 tag : No
Command line compressor : C:\Program Files (x86)\Exact Audio Copy\Flac\flac.exe
Additional command line options : -V -8 -T "Genre=%genre%" -T "Artist=%artist%" -T "Title=%title%" -T "Album=%albumtitle%" -T "Date=%year%" -T "Tracknumber=%tracknr%" -T "Comment=%comment%" %source%

TOC of the extracted CD

Track | Start | Length | Start sector | End sector
---------------------------------------------------------
1 | 0:00.00 | 3:36.17 | 0 | 16216
2 | 3:36.17 | 1:58.60 | 16217 | 25126
3 | 5:35.02 | 5:13.51 | 25127 | 48652
4 | 10:48.53 | 4:53.32 | 48653 | 70659
5 | 15:42.10 | 3:41.40 | 70660 | 87274
6 | 19:23.50 | 4:24.54 | 87275 | 107128
7 | 23:48.29 | 4:04.13 | 107129 | 125441
8 | 27:52.42 | 3:47.45 | 125442 | 142511
9 | 31:40.12 | 8:37.19 | 142512 | 181305

Range status and errors

Selected range

Filename D:\Браво - Unrealised (SZCD 4281-18) (2018)\Браво - Unrealised (SZCD 4281-18) (2018).wav

Peak level 94.0 %
Extraction speed 1.8 X
Range quality 100.0 %
Test CRC 8FD340E2
Copy CRC 8FD340E2
Copy OK

No errors occurred

AccurateRip summary
Track 1 not present in database
Track 2 not present in database
Track 3 not present in database
Track 4 not present in database
Track 5 not present in database
Track 6 not present in database
Track 7 not present in database
Track 8 not present in database
Track 9 not present in database
None of the tracks are present in the AccurateRip database

End of status report

==== Log checksum 72EFB23426308028E855F42EF9BBFF782A556F6AED386CD196954EA6CFF2FE37 ====
REM GENRE Rock 
REM DATE 2018
REM DISCID 69097109
REM COMMENT "ExactAudioCopy v1.0b3"
CATALOG 4630038842813
PERFORMER "Браво"
TITLE "Unrealised"
FILE "Браво - Unrealised (SZCD 4281-18) (2018).flac" WAVE
TRACK 01 AUDIO
TITLE "Наш дом"
PERFORMER "Браво"
INDEX 01 00:00:00
TRACK 02 AUDIO
TITLE "Blues de Moscou"
PERFORMER "Браво"
INDEX 00 03:33:17
INDEX 01 03:36:17
TRACK 03 AUDIO
TITLE "Тишина"
PERFORMER "Браво"
INDEX 00 05:32:02
INDEX 01 05:35:02
TRACK 04 AUDIO
TITLE "Замок из песка"
PERFORMER "Браво"
INDEX 00 10:45:53
INDEX 01 10:48:53
TRACK 05 AUDIO
TITLE "Навсегда"
PERFORMER "Браво"
INDEX 00 15:39:10
INDEX 01 15:42:10
TRACK 06 AUDIO
TITLE "Буги-автостоп"
PERFORMER "Браво"
INDEX 00 19:20:50
INDEX 01 19:23:50
TRACK 07 AUDIO
TITLE "Полет"
PERFORMER "Браво"
INDEX 00 23:45:29
INDEX 01 23:48:29
TRACK 08 AUDIO
TITLE "Любовь не горит"
PERFORMER "Браво"
INDEX 00 27:49:42
INDEX 01 27:52:42
TRACK 09 AUDIO
TITLE "На планете Гамма"
PERFORMER "Браво"
INDEX 00 31:37:12
INDEX 01 31:40:12

Этот торрент недоступен для скачивания без регистрации, однако доступен по публичной magnet-ссылке (источники с публичных трекеров). Перед использованием ссылки прочтите, пожалуйста Пользовательское соглашение, а также как можно дольше оставайтесь на раздаче! Для того, чтобы скачать сам торрент-файл (который видит больше источников), а также для того, чтобы поблагодарить релизера, вам необходимо зарегистрироваться. Если регистрироваться лень - вы можете также попробовать скачать релиз по нашим партнерским ссылкам ниже. Кроме того, зарегистрированным пользователям не показывается всплывающая реклама при скачивании.

[underverse.name].t141470.torrent
Трекер: Зарегистрирован   [ 18.08.2019 09:59 ]  
Статус: проверено (by Бишеп at 18.08.2019 09:59)
Поблагодарили: пока никто не поблагодарил...
Тип торрента: публичный - доступные источники с открытых трекеров: 
Размер: 534 MB (занимает 0.12 DVDR, для записи нужно 1 болванка DVDR/RW)
 
 

Яндекс.Метрика powered by Sphinx


В Н И М А Н И Е
Сайт не распространяет и не хранит электронные версии произведений, а лишь бесплатно и без коммерческой выгоды (не требуя взамен платы,
SMS и т.д.) предоставляет доступ к создаваемому пользователями каталогу ссылок на торрент-файлы, которые содержат только списки хеш-сумм.
Убедительная просьба с жалобами обращаться напрямую к пользователю, разместившему торрент файл.

Вверх