Loading...
Error

В пещере кристаллов / Into The Crystal Cave (Гари Лэнг) [2010 г., документальный, научно-популярный, спелеология, DVB] VO (АРК-ТВ)

Статистика раздачи
Размер:  739 MB   |    Зарегистрирован:  3 года 2 месяца   |    Скачан:  2 раза

Полного источника не было: 3 года 1 месяц

Сидов:  0  |  0 KB/s  ]   Личеров:  0  |  0 KB/s  ]

* - сиды/пиры с внешних источников

   
 
Автор Сообщение

ARI71 Пол:Муж

28-Июл-2019 22:30

В пещере кристаллов / Into The Crystal Cave


Год выпуска: 2010
Жанр: документальный, научно-популярный, спелеология
Страна: США , Канада , Мексика Galafilm, C/Productions, Discovery Channel Canada, National Geographic Channel
Режиссер: Гари Лэнг
Текст читает: Игорь Тарадайкин
Сюжет фильма:
В 2000 году, на территории Мексики, в шахте Naica по добыче свинца, было сделано ошеломляющее открытие. Это самое настоящее геологическое Чудо света! Такого больше нет нигде. Смертельно опасная, величественная пещера, заполненная острыми, как лезвие, непрочными гигантскими кристаллами. Существуют ли чудеса способные сравняться с ней по красоте? Команда ученых рискует своими жизнями, что бы узнать это. Страшная жара и влажность могут убить неосторожного исследователя за считанные минуты. Спелеологи открывают другие смертоносные, но сногсшибательные пещеры и натыкаются на очередную загадку. Тайна скрывается глубоко под поверхностью земли, еще в одной пещере гигантских кристаллов.

Качество видео: DVB

Продолжительность: 00:45:07
Формат: MKV
Видео: MPEG-4 AVC, [email protected], 2007 kbps
Аудио: русский, одноголосый [профессиональный, АРК-ТВ], MP2 2.0, 192 kbps

Код:

Общее
Уникальный идентификатор : 120727563224586733229223336165982638117 (0x5AD3486CF7B407F1191811A0BD789025)
Полное имя : Пещера гигантских кристаллов.mkv
Формат : Matroska
Версия формата : Version 4
Размер файла : 739 Мбайт
Продолжительность : 45 м. 7 с.
Общий поток : 2291 Кбит/сек
Дата кодирования : UTC 2016-06-02 20:19:37
Программа кодирования : mkvmerge v9.2.0 (''Photograph'') 64bit
Библиотека кодирования : libebml v1.3.3 + libmatroska v1.4.4

Видео
Идентификатор : 1
Формат : AVC
Формат/Информация : Advanced Video Codec
Профиль формата : [email protected]
Настройки формата : CABAC / 4 Ref Frames
Параметр CABAC формата : Да
Параметр RefFrames формата : 4 кадра
Идентификатор кодека : V_MPEG4/ISO/AVC
Продолжительность : 47 м. 7 с.
Битрейт : 2007 Кбит/сек
Ширина : 720 пикселей
Высота : 576 пикселей
Соотношение сторон : 16:9
Режим частоты кадров : Переменный
Частота кадров : 47,780 кадров/сек
Частота кадров в оригинале : 25,000 кадров/сек
Стандарт вещания : Component
Цветовое пространство : YUV
Субдискретизация насыщенности : 4:2:0
Битовая глубина : 8 бит
Тип развёртки : Чересстрочная
Метод сохранения типа развёртки : Раздельные поля
Порядок развёртки : Верхнее поле первое
Бит/(Пиксели*Кадры) : 0.101
Размер потока : 676 Мбайт (91%)
Default : Да
Forced : Нет
Цветовой диапазон : Limited
Основные цвета : BT.601 PAL
Характеристики трансфера : BT.470 System B/G
Коэффициенты матрицы : BT.470 System B/G

Аудио
Идентификатор : 2
Формат : MPEG Audio
Версия формата : Version 1
Профиль формата : Layer 2
Настройки формата : Joint stereo / Intensity Stereo + MS Stereo
Идентификатор кодека : A_MPEG/L2
Идентификатор кодека/Подсказка : MP2
Продолжительность : 47 м. 7 с.
Вид битрейта : Постоянный
Битрейт : 192 Кбит/сек
Каналы : 2 канала
Частота : 48,0 КГц
Частота кадров : 39,830 кадров/сек (1205 SPF)
Метод сжатия : С потерями
Задержка видео : 5 мс.
Размер потока : 61,9 Мбайт (8%)
Заголовок : Russian VO ("АРК-ТВ") - Игорь Тарадайкин
Язык : Russian
Default : Да
Forced : Нет
picpicpicpicpic
Для увеличения картинки щелкните мышкой по превью

Этот торрент недоступен для скачивания без регистрации, однако доступен по публичной magnet-ссылке (источники с публичных трекеров). Перед использованием ссылки прочтите, пожалуйста Пользовательское соглашение, а также как можно дольше оставайтесь на раздаче! Для того, чтобы скачать сам торрент-файл (который видит больше источников), а также для того, чтобы поблагодарить релизера, вам необходимо зарегистрироваться. Если регистрироваться лень - вы можете также попробовать скачать релиз по нашим партнерским ссылкам ниже. Кроме того, зарегистрированным пользователям не показывается всплывающая реклама при скачивании.

[underverse.name].t139636.torrent
Трекер: Зарегистрирован   [ 28.07.2019 22:30 ]  
Статус: проверено (by ARI71 at 28.07.2019 22:31)
Поблагодарили: пока никто не поблагодарил...
Тип торрента: публичный - доступные источники с открытых трекеров: 
Размер: 739 MB (занимает 0.16 DVDR, для записи нужно 1 болванка DVDR/RW)
 
 

Яндекс.Метрика powered by Sphinx


В Н И М А Н И Е
Сайт не распространяет и не хранит электронные версии произведений, а лишь бесплатно и без коммерческой выгоды (не требуя взамен платы,
SMS и т.д.) предоставляет доступ к создаваемому пользователями каталогу ссылок на торрент-файлы, которые содержат только списки хеш-сумм.
Убедительная просьба с жалобами обращаться напрямую к пользователю, разместившему торрент файл.

Вверх