Loading...
Error

Япония: между небом и землей - Горный остров / Japan: Between Earth And Sky (Эрик Бофилс) [2018 г., документальный, путешествия, природа, HDRip] VO

Статистика раздачи
Размер:  785 MB   |    Зарегистрирован:  3 года 8 месяцев   |    Скачан:  6 раз

Полного источника не было: 11 месяцев

Сидов:  0  |  0 KB/s  ]   Личеров:  0  |  0 KB/s  ]

* - сиды/пиры с внешних источников

   
 
Автор Сообщение

seasea Пол:Муж

22-Янв-2019 11:58

Япония: между небом и землей - Горный остров / Japan: Between Earth And Sky


Год выпуска: 2018
Жанр: документальный, путешествия, природа
Страна: Япония , США National Geographic
Режиссер: Эрик Бофилс
Доп. инфо о переводе: Студия Велес
Сюжет фильма:
Неповторимые съёмки островов Японии с высоты птичьего полёта, её удивительной природы, ландшафта и городов.

02. Горный остров - Япония, страна традиций и современных технологий, развивалась под влиянием своего самого крупного острова - Хонсю. Расположенный у подножия горы Фудзи, этот остров является самым населенным из всех островов японского архипелага.
Качество видео: HDRip

Продолжительность: 00:43:13
Формат: AVI
Видео: MPEG-4, 720x480, 2 398 kb/s
Аудио: русский, одноголосый закадровый [профессиональный], MP3 2.0, 128 kb/s
Rip от: для underver.se Rip чистый, рекламы нет

Код:

General
Complete name                            : 02. Горный остров.avi
Format                                   : AVI
Format/Info                              : Audio Video Interleave
File size                                : 785 MiB
Duration                                 : 43 min 13 s
Overall bit rate                         : 2 540 kb/s
Writing application                      : Lavf57.41.100

Video
ID                                       : 0
Format                                   : MPEG-4 Visual
Format profile                           : [email protected]
Format settings, BVOP                    : No
Format settings, QPel                    : No
Format settings, GMC                     : No warppoints
Format settings, Matrix                  : Default (H.263)
Codec ID                                 : FMP4
Duration                                 : 43 min 13 s
Bit rate                                 : 2 398 kb/s
Width                                    : 720 pixels
Height                                   : 480 pixels
Display aspect ratio                     : 16:9
Frame rate                               : 29.970 (30000/1001) FPS
Standard                                 : NTSC
Color space                              : YUV
Chroma subsampling                       : 4:2:0
Bit depth                                : 8 bits
Scan type                                : Progressive
Compression mode                         : Lossy
Bits/(Pixel*Frame)                       : 0.232
Stream size                              : 741 MiB (94%)
Writing library                          : Lavc57.48.101

Audio
ID                                       : 1
Format                                   : MPEG Audio
Format version                           : Version 1
Format profile                           : Layer 3
Format settings                          : Joint stereo / MS Stereo
Codec ID                                 : 55
Codec ID/Hint                            : MP3
Duration                                 : 43 min 13 s
Bit rate mode                            : Constant
Bit rate                                 : 128 kb/s
Channel(s)                               : 2 channels
Sampling rate                            : 44.1 kHz
Compression mode                         : Lossy
Stream size                              : 39.6 MiB (5%)
Alignment                                : Aligned on interleaves
Interleave, duration                     : 26  ms (0.78 video frame)
Interleave, preload duration             : 26  ms
picpicpicpic
Для увеличения картинки щелкните мышкой по превью

Этот торрент недоступен для скачивания без регистрации, однако доступен по публичной magnet-ссылке (источники с публичных трекеров). Перед использованием ссылки прочтите, пожалуйста Пользовательское соглашение, а также как можно дольше оставайтесь на раздаче! Для того, чтобы скачать сам торрент-файл (который видит больше источников), а также для того, чтобы поблагодарить релизера, вам необходимо зарегистрироваться. Если регистрироваться лень - вы можете также попробовать скачать релиз по нашим партнерским ссылкам ниже. Кроме того, зарегистрированным пользователям не показывается всплывающая реклама при скачивании.

[underverse.name].t124926.torrent
Трекер: Зарегистрирован   [ 22.01.2019 11:58 ]  
Статус: проверено (by ARI71 at 22.01.2019 12:18)
Поблагодарили: 4 человека
Тип торрента: публичный - доступные источники с открытых трекеров: 
Размер: 785 MB (занимает 0.18 DVDR, для записи нужно 1 болванка DVDR/RW)
 
 

seasea Пол:Муж

22-Янв-2019 12:21

Обязательно посмотрите! Не земная красота...

ARI71 Пол:Муж

25-Янв-2019 18:43

Спасибо, за фильм, скачал! (встаю на раздачу) :good:

Яндекс.Метрика powered by Sphinx


В Н И М А Н И Е
Сайт не распространяет и не хранит электронные версии произведений, а лишь бесплатно и без коммерческой выгоды (не требуя взамен платы,
SMS и т.д.) предоставляет доступ к создаваемому пользователями каталогу ссылок на торрент-файлы, которые содержат только списки хеш-сумм.
Убедительная просьба с жалобами обращаться напрямую к пользователю, разместившему торрент файл.

Вверх