Loading...
Error

Дикие места Ирана / Iran's Wild Side (Мани Мирсадеги) [2018 г., документальный, флора, фауна, HDTV 1080i] VO (Велес)

Статистика раздачи
Размер:  2.52 GB   |    Зарегистрирован:  3 года 8 месяцев   |    Скачан:  9 раз

Полного источника не было: 6 месяцев

Сидов:  0  |  0 KB/s  ]   Личеров:  0  |  0 KB/s  ]

* - сиды/пиры с внешних источников

   
 
Автор Сообщение

IronMan Пол:Муж

31-Дек-2018 16:42

Дикие места Ирана / Iran's Wild Side


Год выпуска: 2018
Жанр: Документальный, флора, фауна
Режиссер: Мани Мирсадеги

Описание:
От жарких засушливых пустынь и зыбучих песков до захватывающих дух снежных гор и их уникальных обитателей, пышной зелени мангровых зарослей и их необычных существ. Иран это земля, окутанная тайнами и крайностями.

Страна: Канада
Студия: MANI FILM, INC, for NATIONAL GEOGRAPHIC
Продолжительность: ~ 00:44:00
Перевод: Профессиональный (одноголосый закадровый) студия Велес

Кодек: AVC/H.264
Качество: HDTV 1080i
Видео: 1920x1080 (16:9), 25 fps, AVC (x264), [email protected], ~ 7837 kbps, 25fps, 0.151 bit/pixel
Аудио: Русский 48 kHz, MPEG Layer 2, 2 ch, ~192.00 kbps avg

Семпл
Complete name : F:НаладкиДикие места Ирана.mkv
Format : Matroska
Format version : Version 4 / Version 2
File size : 2.52 GiB
Duration : 43 min 58 s
Overall bit rate : 8 192 kb/s
Encoded date : UTC 2018-12-31 10:34:48
Writing application : mkvmerge v6.6.0 ('The Edge Of The In Between') built on Dec 1 2013 17:55:00
Writing library : libebml v1.3.0 + libmatroska v1.4.1

Video
ID : 1
Format : AVC
Format/Info : Advanced Video Codec
Format profile : [email protected]
Format settings : CABAC / 3 Ref Frames
Format settings, CABAC : Yes
Format settings, ReFrames : 3 frames
Codec ID : V_MPEG4/ISO/AVC
Duration : 43 min 58 s
Bit rate : 7 837 kb/s
Width : 1 920 pixels
Height : 1 080 pixels
Display aspect ratio : 16:9
Frame rate mode : Constant
Frame rate : 25.000 FPS
Color space : YUV
Chroma subsampling : 4:2:0
Bit depth : 8 bits
Scan type : Interlaced
Scan type, store method : Separated fields
Scan order : Top Field First
Bits/(Pixel*Frame) : 0.151
Stream size : 2.41 GiB (96%)
Default : Yes
Forced : No
Color range : Limited
Color primaries : BT.709
Transfer characteristics : BT.709
Matrix coefficients : BT.709

Audio
ID : 2
Format : MPEG Audio
Format version : Version 1
Format profile : Layer 2
Codec ID : A_MPEG/L2
Codec ID/Hint : MP2
Duration : 43 min 58 s
Bit rate mode : Constant
Bit rate : 192 kb/s
Channel(s) : 2 channels
Sampling rate : 48.0 kHz
Compression mode : Lossy
Stream size : 60.4 MiB (2%)
Language : Russian
Default : Yes
Forced : No

Этот торрент недоступен для скачивания без регистрации, однако доступен по публичной magnet-ссылке (источники с публичных трекеров). Перед использованием ссылки прочтите, пожалуйста Пользовательское соглашение, а также как можно дольше оставайтесь на раздаче! Для того, чтобы скачать сам торрент-файл (который видит больше источников), а также для того, чтобы поблагодарить релизера, вам необходимо зарегистрироваться. Если регистрироваться лень - вы можете также попробовать скачать релиз по нашим партнерским ссылкам ниже. Кроме того, зарегистрированным пользователям не показывается всплывающая реклама при скачивании.

[underverse.name].t123401.torrent
Трекер: Зарегистрирован   [ 31.12.2018 16:42 ]  
Статус: проверено (by 90ytr90 at 01.01.2019 15:46)
Поблагодарили: пока никто не поблагодарил...
Тип торрента: публичный - доступные источники с открытых трекеров: 
Размер: 2.52 GB (занимает 0.57 DVDR, для записи нужно 1 болванка DVDR/RW)
 
 

Яндекс.Метрика powered by Sphinx


В Н И М А Н И Е
Сайт не распространяет и не хранит электронные версии произведений, а лишь бесплатно и без коммерческой выгоды (не требуя взамен платы,
SMS и т.д.) предоставляет доступ к создаваемому пользователями каталогу ссылок на торрент-файлы, которые содержат только списки хеш-сумм.
Убедительная просьба с жалобами обращаться напрямую к пользователю, разместившему торрент файл.

Вверх