Loading...
Error

(Rock, Rock&Roll, PopMusic) Браво - Золотая серия (2004) [FLAC (Image+.CUE), lossless]

Статистика раздачи
Размер:  493 MB   |    Зарегистрирован:  9 лет 4 месяца   |    Скачан:  11 раз

Полного источника не было: 8 месяцев

Сидов:  0  |  0 KB/s  ]   Личеров:  0  |  0 KB/s  ]

* - сиды/пиры с внешних источников

   
 
Автор Сообщение

M-i-i-i-ke Пол:Муж

03-Июн-2010 12:15

Браво - Золотая серия

Жанр: Rock, Rock&Roll, PopMusic
Год выпуска: 2004
Производитель диска: Россия
Аудиокодек: FLAC
Тип рипа: Image+.CUE
Битрейт аудио: lossless
Продолжительность: 1:11:40

Треклист:

01. Чёрный кот
02. Король оранжевое лето
03. Старый отель
04. Жёлтые ботинки
05. Верю я
06. Ленинградский рок-н-ролл
07. Будь со мной
08. Медицинский институт
09. Кошки
10. Московский бит
11. Любите девушки
12. Это за окном рассвет
13. Жар-птица
14. Этот город
15. Любовь не горит
16. Я-то, что надо
17. Серенада 2000
18. Ветер знает
19. Вася
20. Лучший город земли
21. Дорога в облака


Exact Audio Copy V0.99 prebeta 4 from 23. January 2008

Отчёт EAC об извлечении, выполненном 16. апреля 2009, 15:05

Браво / Золотая серия

Дисковод: Optiarc DVD RW AD-7200A Adapter: 0 ID: 0

Режим чтения : Достоверность
Использование точного потока : Да
Отключение кэша аудио : Да
Использование указателей C2 : Нет

Коррекция смещения при чтении : 48
Способность читать области Lead-in и Lead-out : Нет
Заполнение пропущенных сэмплов тишиной : Да
Удаление блоков с тишиной в начале и конце : Нет
При вычислениях CRC использовались нулевые сэмплы : Да
Интерфейс : Установленный внешний ASPI-интерфейс

Выходной формат : Пользовательский кодировщик
Выбранный битрейт : 32 kBit/s
Качество : Высокий
Добавление ID3-тэга : Да
Утилита сжатия : C:\Program Files\Monkey's Audio\MAC.exe

TOC извлечённого CD

Трек | Старт | Длительность | Начальный сектор | Конечный сектор
---------------------------------------------------------------------
1 | 0:00.00 | 2:55.15 | 0 | 13139
2 | 2:55.15 | 2:36.30 | 13140 | 24869
3 | 5:31.45 | 2:54.12 | 24870 | 37931
4 | 8:25.57 | 3:05.34 | 37932 | 51840
5 | 11:31.16 | 3:57.31 | 51841 | 69646
6 | 15:28.47 | 3:30.00 | 69647 | 85396
7 | 18:58.47 | 2:51.72 | 85397 | 98293
8 | 21:50.44 | 2:21.71 | 98294 | 108939
9 | 24:12.40 | 4:37.23 | 108940 | 129737
10 | 28:49.63 | 4:16.70 | 129738 | 149007
11 | 33:06.58 | 2:55.55 | 149008 | 162187
12 | 36:02.38 | 3:09.08 | 162188 | 176370
13 | 39:11.46 | 3:39.18 | 176371 | 192813
14 | 42:50.64 | 3:21.25 | 192814 | 207913
15 | 46:12.14 | 3:46.64 | 207914 | 224927
16 | 49:59.03 | 2:45.66 | 224928 | 237368
17 | 52:44.69 | 3:32.28 | 237369 | 253296
18 | 56:17.22 | 3:02.18 | 253297 | 266964
19 | 59:19.40 | 3:31.07 | 266965 | 282796
20 | 62:50.47 | 3:24.16 | 282797 | 298112
21 | 66:14.63 | 5:25.46 | 298113 | 322533

Характеристики диапазона извлечения и сообщения об ошибках

Выбранный диапазон

Имя файла D:\Раздачи\Браво - Золотая серия.wav

Пиковый уровень 100.0 %
Качество диапазона 99.9 %
CRC копии 0763B1FA
Копирование... OK

Ошибок не произошло

AccurateRip: сводка

Трек 1 нет в базе данных
Трек 2 нет в базе данных
Трек 3 нет в базе данных
Трек 4 нет в базе данных
Трек 5 нет в базе данных
Трек 6 нет в базе данных
Трек 7 нет в базе данных
Трек 8 нет в базе данных
Трек 9 нет в базе данных
Трек 10 нет в базе данных
Трек 11 нет в базе данных
Трек 12 нет в базе данных
Трек 13 нет в базе данных
Трек 14 нет в базе данных
Трек 15 нет в базе данных
Трек 16 нет в базе данных
Трек 17 нет в базе данных
Трек 18 нет в базе данных
Трек 19 нет в базе данных
Трек 20 нет в базе данных
Трек 21 нет в базе данных

Ни одного трека нет в базе AccurateRip

Конец отчёта

Этот торрент недоступен для скачивания без регистрации, однако доступен по публичной magnet-ссылке (источники с публичных трекеров). Перед использованием ссылки прочтите, пожалуйста Пользовательское соглашение, а также как можно дольше оставайтесь на раздаче! Для того, чтобы скачать сам торрент-файл (который видит больше источников), а также для того, чтобы поблагодарить релизера, вам необходимо зарегистрироваться. Если регистрироваться лень - вы можете также попробовать скачать релиз по нашим партнерским ссылкам ниже. Кроме того, зарегистрированным пользователям не показывается всплывающая реклама при скачивании.

[underverse.su].t26979.torrent
Трекер: Зарегистрирован   [ 03.05.2013 05:17 ]  
Статус: проверено (by Бишеп at 03.05.2013 05:18)
Поблагодарили: 1 человек
Тип торрента: публичный - доступные источники с открытых трекеров: 
Размер: 493 MB (занимает 0.11 DVDR, для записи нужно 1 болванка DVDR/RW)
 
 

Alekzander Пол:Муж

02-Фев-2012 06:54

СПАСИБО!

Яндекс.Метрика powered by Sphinx


В Н И М А Н И Е
Сайт не распространяет и не хранит электронные версии произведений, а лишь бесплатно и без коммерческой выгоды (не требуя взамен платы,
SMS и т.д.) предоставляет доступ к создаваемому пользователями каталогу ссылок на торрент-файлы, которые содержат только списки хеш-сумм.
Убедительная просьба с жалобами обращаться напрямую к пользователю, разместившему торрент файл.

Вверх