Loading...
Error

Дикая Антарктида / Wild Antarctica (Джессика Коннелл) [2015 г., документальный, природа, флора, фауна, HDTVRip-AVC] VO (Велес)

Статистика раздачи
Размер:  919 MB   |    Зарегистрирован:  4 года   |    Скачан:  14 раз
Сидов:  1  |  0 KB/s  ]   Личеров:  0  |  0 KB/s  ]

* - сиды/пиры с внешних источников

   
 
Автор Сообщение

ARI71 Пол:Муж

04-Окт-2018 15:42

Дикая Антарктида / Wild Antarctica


Год выпуска: 2015
Жанр: документальный, природа, флора, фауна
Страна: Новая Зеландия Natural History New Zeland Ltd
Режиссер: Джессика Коннелл
Сюжет фильма:
Антарктида. Самый холодный, сухой, удаленный континент Земли. Изоляция и экстремальные температуры делают Антарктиду не похожей на другие места планеты. Местные животные прекрасно приспособлены к её суровым условиям. Но любое живое существо на этом замерзшем континенте всегда находится на краю гибели. Ни где больше с такой силой не проявляется воля к выживанию как в Антарктиде. Обитание на этой промерзлой и жестокой земле - наивысшее достижение на планете, потому что жизнь здесь существует на грани возможностей.
Качество видео: HDTVRip-AVC

Продолжительность: 00:43:59
Формат: MKV
Видео: MPEG-4 AVC, 1024x576, 2728 kbps
Аудио: русский, одноголосый [профессиональный, Велес], AC3 2.0, 192 kbps

Код:

Общее
Уникальный идентификатор : 222610668447887328658833826233651388364 (0xA7794156C74A641899923A7918395FCC)
Полное имя : Дикая Антарктида.2015.HDTVRip.(AVC).mkv
Формат : Matroska
Версия формата : Version 2
Размер файла : 919 Мбайт
Продолжительность : 43 м. 59 с.
Общий поток : 2922 Кбит/сек
Дата кодирования : UTC 2015-08-04 16:41:54
Программа кодирования : mkvmerge v6.1.0 ('Old Devil') built on Mar 4 2013 09:10:42
Библиотека кодирования : libebml v1.3.0 + libmatroska v1.4.0

Видео
Идентификатор : 1
Формат : AVC
Формат/Информация : Advanced Video Codec
Профиль формата : [email protected]
Настройки формата : CABAC / 11 Ref Frames
Параметр CABAC формата : Да
Параметр RefFrames формата : 11 кадров
Идентификатор кодека : V_MPEG4/ISO/AVC
Продолжительность : 43 м. 59 с.
Битрейт : 2728 Кбит/сек
Ширина : 1024 пикселя
Высота : 576 пикселей
Соотношение сторон : 16:9
Режим частоты кадров : Постоянный
Частота кадров : 25,000 кадров/сек
Цветовое пространство : YUV
Субдискретизация насыщенности : 4:2:0
Битовая глубина : 8 бит
Тип развёртки : Прогрессивная
Бит/(Пиксели*Кадры) : 0.185
Размер потока : 841 Мбайт (91%)
Библиотека кодирования : x264 core 130 r2273 b3065e6
Настройки программы : cabac=1 / ref=11 / deblock=1:-3:-3 / analyse=0x3:0x133 / me=umh / subme=9 / psy=1 / psy_rd=1.05:0.15 / mixed_ref=1 / me_range=32 / chroma_me=0 / trellis=2 / 8x8dct=1 / cqm=0 / deadzone=21,11 / fast_pskip=0 / chroma_qp_offset=-3 / threads=6 / lookahead_threads=1 / sliced_threads=0 / nr=0 / decimate=0 / interlaced=0 / bluray_compat=0 / constrained_intra=0 / bframes=10 / b_pyramid=2 / b_adapt=2 / b_bias=0 / direct=3 / weightb=1 / open_gop=0 / weightp=2 / keyint=250 / keyint_min=25 / scenecut=40 / intra_refresh=0 / rc_lookahead=60 / rc=2pass / mbtree=1 / bitrate=2728 / ratetol=1.0 / qcomp=0.60 / qpmin=0 / qpmax=69 / qpstep=4 / cplxblur=20.0 / qblur=0.5 / ip_ratio=1.40 / aq=1:1.00
Default : Да
Forced : Нет

Аудио
Идентификатор : 2
Формат : AC-3
Формат/Информация : Audio Coding 3
Идентификатор кодека : A_AC3
Продолжительность : 43 м. 59 с.
Вид битрейта : Постоянный
Битрейт : 192 Кбит/сек
Каналы : 2 канала
Расположение каналов : Front: L R
Частота : 48,0 КГц
Частота кадров : 31,250 кадров/сек (1536 SPF)
Битовая глубина : 16 бит
Метод сжатия : С потерями
Размер потока : 60,4 Мбайт (7%)
ServiceKind/String : Complete Main
Default : Да
Forced : Нет
picpicpicpic
Для увеличения картинки щелкните мышкой по превью

Этот торрент недоступен для скачивания без регистрации, однако доступен по публичной magnet-ссылке (источники с публичных трекеров). Перед использованием ссылки прочтите, пожалуйста Пользовательское соглашение, а также как можно дольше оставайтесь на раздаче! Для того, чтобы скачать сам торрент-файл (который видит больше источников), а также для того, чтобы поблагодарить релизера, вам необходимо зарегистрироваться. Если регистрироваться лень - вы можете также попробовать скачать релиз по нашим партнерским ссылкам ниже. Кроме того, зарегистрированным пользователям не показывается всплывающая реклама при скачивании.

[underverse.name].t115189.torrent
Трекер: Зарегистрирован   [ 04.10.2018 15:42 ]  
Статус: проверено (by ARI71 at 04.10.2018 15:43)
Поблагодарили: 2 человека
Тип торрента: публичный - доступные источники с открытых трекеров: 
Размер: 919 MB (занимает 0.21 DVDR, для записи нужно 1 болванка DVDR/RW)
 
 

Яндекс.Метрика powered by Sphinx


В Н И М А Н И Е
Сайт не распространяет и не хранит электронные версии произведений, а лишь бесплатно и без коммерческой выгоды (не требуя взамен платы,
SMS и т.д.) предоставляет доступ к создаваемому пользователями каталогу ссылок на торрент-файлы, которые содержат только списки хеш-сумм.
Убедительная просьба с жалобами обращаться напрямую к пользователю, разместившему торрент файл.

Вверх