Loading...
Error

Зыбучие пески: невидимая опасность / Danger Quicksand (Эми Бьюкер) [1999 г., документальный, научно-популярный, SatRip] VO

Статистика раздачи
Размер:  500 MB   |    Зарегистрирован:  4 года   |    Скачан:  7 раз

Полного источника не было: 9 часов

Сидов:  0  |  0 KB/s  ]   Личеров:  0  |  0 KB/s  ]

* - сиды/пиры с внешних источников

   
 
Автор Сообщение

ARI71 Пол:Муж

24-Сен-2018 18:12

Зыбучие пески: невидимая опасность / Danger Quicksand


Год выпуска: 1999
Жанр: документальный, научно-популярный
Страна: США National Geographic Society
Режиссер: Эми Бьюкер
Сюжет фильма:
Смотрите под ноги! Ведь Национальное Географическое Общество исследует смертоносные глубины коварной природной ловушки, от которой подчас невозможно спастись, распространенной куда шире, чем кажется многим из нас. Имя этому топкому убийце - зыбучий песок или плывун. Узнайте о реальных опасностях, которые несет этот привычный атрибут голливудских фильмом ужасов, и научитесь распознавать предательские признаки зыбучих песков. Станьте свидетелями мучительных эпизодов, снятых на пленку очевидцами, и посмотрите инсценированные рассказы как об успешных, так и трагически неудачных попытках спасения жертв, пойманных в тиски зыбучего песка! Побывайте в разных частях света, чтобы обнаружить на удивление большое число страшных `зон зыбучих песков`. От изучения смертоносных свойств этого зловещего явления при помощи компьютерной анимации до советов о мерах, способных спасти вам жизнь, если вы увязли по колени и вас быстро затягивает. Этот фильм стал подробным досье на скрытого убийцу, который может оказаться не дальше вашего заднего двора...
Качество видео: SatRip

Продолжительность: 00:53:43
Формат: AVI
Видео: XviD, 352x272, 1163 kbps
Аудио: русский, одноголосый закадровый [профессиональный], MP3 2.0, 128 kbps

Код:

Общее
Полное имя : Зыбучие пески невидимая опасность.avi
Формат : AVI
Формат/Информация : Audio Video Interleave
Размер файла : 500 Мбайт
Продолжительность : 53 м. 43 с.
Общий поток : 1301 Кбит/сек
Программа кодирования : FairUse Wizard - http://fairusewizard.com
Библиотека кодирования : The best and REALLY easy backup tool

Видео
Идентификатор : 0
Формат : MPEG-4 Visual
Профиль формата : Advanced [email protected]
Настройки формата : BVOP2
Параметр BVOP формата : 2
Параметр QPel формата : Нет
Параметр GMC формата : Без точки перехода
Параметр матрицы формата : Default (H.263)
Режим смешивания : Сжатый битовый поток
Идентификатор кодека : XVID
Идентификатор кодека/Подсказка : XviD
Продолжительность : 53 м. 43 с.
Битрейт : 1163 Кбит/сек
Ширина : 352 пикселя
Высота : 272 пикселя
Соотношение сторон : 1,294
Частота кадров : 25,000 кадров/сек
Цветовое пространство : YUV
Субдискретизация насыщенности : 4:2:0
Битовая глубина : 8 бит
Тип развёртки : Прогрессивная
Метод сжатия : С потерями
Бит/(Пиксели*Кадры) : 0.486
Размер потока : 447 Мбайт (89%)
Библиотека кодирования : XviD 1.2.0.dev47 (UTC 2006-11-01)

Аудио
Идентификатор : 1
Формат : MPEG Audio
Версия формата : Version 1
Профиль формата : Layer 3
Настройки формата : Joint stereo / MS Stereo
Идентификатор кодека : 55
Идентификатор кодека/Подсказка : MP3
Продолжительность : 53 м. 43 с.
Вид битрейта : Постоянный
Битрейт : 128 Кбит/сек
Каналы : 2 канала
Частота : 48,0 КГц
Частота кадров : 41,667 кадра/сек (1152 SPF)
Метод сжатия : С потерями
Размер потока : 49,2 Мбайт (10%)
Выравнивание : Соединение по промежуткам
Продолжительность промежутка : 40 мс. (1,00 видеокадр)
Время предзагрузки промежутка : 504 мс.
Библиотека кодирования : LAME3.97 
Настройки программы : -m j -V 4 -q 2 -lowpass 17 -b 128
picpicpicpicpicpic
Для увеличения картинки щелкните мышкой по превью

Этот торрент недоступен для скачивания без регистрации, однако доступен по публичной magnet-ссылке (источники с публичных трекеров). Перед использованием ссылки прочтите, пожалуйста Пользовательское соглашение, а также как можно дольше оставайтесь на раздаче! Для того, чтобы скачать сам торрент-файл (который видит больше источников), а также для того, чтобы поблагодарить релизера, вам необходимо зарегистрироваться. Если регистрироваться лень - вы можете также попробовать скачать релиз по нашим партнерским ссылкам ниже. Кроме того, зарегистрированным пользователям не показывается всплывающая реклама при скачивании.

[underverse.name].t114109.torrent
Трекер: Зарегистрирован   [ 24.09.2018 18:12 ]  
Статус: проверено (by ARI71 at 24.09.2018 18:13)
Поблагодарили: 1 человек
Тип торрента: публичный - доступные источники с открытых трекеров: 
Размер: 500 MB (занимает 0.11 DVDR, для записи нужно 1 болванка DVDR/RW)
 
 

Яндекс.Метрика powered by Sphinx


В Н И М А Н И Е
Сайт не распространяет и не хранит электронные версии произведений, а лишь бесплатно и без коммерческой выгоды (не требуя взамен платы,
SMS и т.д.) предоставляет доступ к создаваемому пользователями каталогу ссылок на торрент-файлы, которые содержат только списки хеш-сумм.
Убедительная просьба с жалобами обращаться напрямую к пользователю, разместившему торрент файл.

Вверх