Loading...
Error

Виктор Астафьев. Встреча в Концертной студии "Останкино" [1979 г., творческий вечер, воспоминания, SatRip]

Статистика раздачи
Размер:  1.37 GB   |    Зарегистрирован:  4 года 3 месяца   |    Скачан:  4 раза

Полного источника не было: 1 месяц 24 дня

Сидов:  0  |  0 KB/s  ]   Личеров:  0  |  0 KB/s  ]

* - сиды/пиры с внешних источников

   
 
Автор Сообщение

ARI71 Пол:Муж

10-Июн-2018 08:04

Виктор Астафьев. Встреча в Концертной студии "Останкино"


Год выпуска: 1979
Жанр: творческий вечер, воспоминания
Страна: СССР "Останкино", Главная редакция литературно-драматических программ
В ролях: Виктор Астафьев
Описание:
Виктор Петрович Астафьев (1924-2001) - выдающийся прозаик, один из тех писателей, кого еще при жизни называли классиком.
В программу включены фрагменты художественного фильма "Сюда не залетали чайки" по повести В. Астафьева "Перевал".
Качество видео: SatRip

Продолжительность: 01:46:31
Формат: AVI
Видео: XviD, 688x512, 1701 kbps
Аудио: русский, MP3 2.0, 128 kbps

Код:

Общее
Полное имя : D:\Viktor.Astafjev.Vstrecha.v. Koncertnoj.studii.Ostankino.1979.XviD.SATRip.fenixclub.avi
Формат : AVI
Формат/Информация : Audio Video Interleave
Размер файла : 1,37 Гбайт
Продолжительность : 1 ч. 46 м.
Общий поток : 1839 Кбит/сек
Программа кодирования : VirtualDubMod 1.5.10.2 (build 2542/release)
Библиотека кодирования : VirtualDubMod build 2542/release

Видео
Идентификатор : 0
Формат : MPEG-4 Visual
Профиль формата : Advanced [email protected]
Настройки формата : BVOP2
Параметр BVOP формата : 2
Параметр QPel формата : Нет
Параметр GMC формата : Без точки перехода
Параметр матрицы формата : Default (MPEG)
Идентификатор кодека : XVID
Идентификатор кодека/Подсказка : XviD
Продолжительность : 1 ч. 46 м.
Битрейт : 1701 Кбит/сек
Ширина : 688 пикселей
Высота : 512 пикселей
Соотношение сторон : 5:4
Соотношение сторон в оригинале : 4:3
Частота кадров : 25,000 кадров/сек
Цветовое пространство : YUV
Субдискретизация насыщенности : 4:2:0
Битовая глубина : 8 бит
Тип развёртки : Прогрессивная
Метод сжатия : С потерями
Бит/(Пиксели*Кадры) : 0.193
Размер потока : 1,27 Гбайт (93%)
Библиотека кодирования : XviD 64

Аудио
Идентификатор : 1
Формат : MPEG Audio
Версия формата : Version 1
Профиль формата : Layer 3
Настройки формата : Joint stereo / MS Stereo
Идентификатор кодека : 55
Идентификатор кодека/Подсказка : MP3
Продолжительность : 1 ч. 46 м.
Вид битрейта : Постоянный
Битрейт : 128 Кбит/сек
Каналы : 2 канала
Частота : 48,0 КГц
Метод сжатия : С потерями
Размер потока : 97,5 Мбайт (7%)
Выравнивание : Разделение по промежуткам
Продолжительность промежутка : 40 мс. (1,00 видеокадр)
Время предзагрузки промежутка : 500 мс.
picpicpicpicpic
Для увеличения картинки щелкните мышкой по превью

Этот торрент недоступен для скачивания без регистрации, однако доступен по публичной magnet-ссылке (источники с публичных трекеров). Перед использованием ссылки прочтите, пожалуйста Пользовательское соглашение, а также как можно дольше оставайтесь на раздаче! Для того, чтобы скачать сам торрент-файл (который видит больше источников), а также для того, чтобы поблагодарить релизера, вам необходимо зарегистрироваться. Если регистрироваться лень - вы можете также попробовать скачать релиз по нашим партнерским ссылкам ниже. Кроме того, зарегистрированным пользователям не показывается всплывающая реклама при скачивании.

[underverse.in].t105892.torrent
Трекер: Зарегистрирован   [ 10.06.2018 08:04 ]  
Статус: проверено (by ARI71 at 10.06.2018 08:05)
Поблагодарили: пока никто не поблагодарил...
Тип торрента: публичный - доступные источники с открытых трекеров: 
Размер: 1.37 GB (занимает 0.31 DVDR, для записи нужно 1 болванка DVDR/RW)
 
 

ARI71 Пол:Муж

19-Янв-2019 07:39

Статус раздачи:

Яндекс.Метрика powered by Sphinx


В Н И М А Н И Е
Сайт не распространяет и не хранит электронные версии произведений, а лишь бесплатно и без коммерческой выгоды (не требуя взамен платы,
SMS и т.д.) предоставляет доступ к создаваемому пользователями каталогу ссылок на торрент-файлы, которые содержат только списки хеш-сумм.
Убедительная просьба с жалобами обращаться напрямую к пользователю, разместившему торрент файл.

Вверх